Завантажити та скачати торренти українською


Nosce Teipsum - At the Heart of Hell (2012, remaster 2013) FLAC | Black Metal

Нові коментарі

Нова тема   Відповісти
Останній раз роздавалося Lesha_d (2014-11-09)
Автор Повідомлення
Anonymous 







2014-11-09 08:22  
Nosce Teipsum - At the Heart of Hell (2012, remaster 2013) FLAC | Black Metal

Nosce Teipsum - At the Heart of Hell (2012, remaster 2013) FLAC | Black Metal


Стиль: Black Metal Metal
Країна, місто: Житомир
Сайти: Офіційний сайт
Видавець: Metallic Media
Виконавці:
Evol - гітари
Furious - вокал
Hauptsturmführer - бас
Satan - ударні
Пісні:
    1. Entering Hells Gate
    2. At the Heart of Hell
    3. Psychology of Genocide
    4. The Rise of Evil
    5. Death Block
    6. Blitzkrieg
    7. Angel of Death
    8. D9
    9. Thy Path to Eternal Eternity
    10. Fast Total Death (bonus)*
    11. Absence of Light (bonus)*
    12. Riders of Human Death (bonus)*
    13. My Black Death (bonus)*
    14. Flesh of Disgust (bonus)*
    15. The Truth of Existence (Tribute to Bal-a-Myth) (bonus)*

* - "Riders of Human Death" (2011) demo
Тривалість: 00:50:19
Мова: англійська
Аудіо-кодек: FLAC
Бітрейт: 1002 кб/с
Звіт:
Exact Audio Copy V1.0 beta 3 from 29. August 2011

EAC extraction logfile from 1. November 2014, 16:49

Nosce Teipsum / At the Heart of Hell (Remastered 2013)

Used drive : ASUS DRW-22B2L b Adapter: 3 ID: 5

Read mode : Secure
Utilize accurate stream : Yes
Defeat audio cache : Yes
Make use of C2 pointers : No

Read offset correction : 6
Overread into Lead-In and Lead-Out : No
Fill up missing offset samples with silence : Yes
Delete leading and trailing silent blocks : No
Null samples used in CRC calculations : Yes
Used interface : Native Win32 interface for Win NT & 2000

Used output format : User Defined Encoder
Selected bitrate : 128 kBit/s
Quality : High
Add ID3 tag : No
Command line compressor : C:\Program Files\Exact Audio Copy\Flac\flac.exe
Additional command line options : -V -8 -T "Date=%year%" -T "Genre=%genre%" -T "Composer=%composer%" %source%

TOC of the extracted CD

Track | Start | Length | Start sector | End sector
---------------------------------------------------------
1 | 0:00.00 | 0:45.11 | 0 | 3385
2 | 0:45.11 | 5:31.09 | 3386 | 28219
3 | 6:16.20 | 4:54.36 | 28220 | 50305
4 | 11:10.56 | 4:06.00 | 50306 | 68755
5 | 15:16.56 | 1:04.06 | 68756 | 73561
6 | 16:20.62 | 4:02.39 | 73562 | 91750
7 | 20:23.26 | 4:21.31 | 91751 | 111356
8 | 24:44.57 | 4:08.56 | 111357 | 130012
9 | 28:53.38 | 3:01.53 | 130013 | 143640
10 | 31:55.16 | 2:04.00 | 143641 | 152940
11 | 33:59.16 | 4:02.00 | 152941 | 171090
12 | 38:01.16 | 3:21.28 | 171091 | 186193
13 | 41:22.44 | 2:50.56 | 186194 | 198999
14 | 44:13.25 | 2:54.00 | 199000 | 212049
15 | 47:07.25 | 3:12.00 | 212050 | 226449

Range status and errors

Selected range

Filename C:\1st0m1n\!!! Dedykuję Najpiękniejszej Polce na Całym Bezbrzeżnym Świecie !!!\Nosce Teipsum - At the Heart of Hell (Remastered 2013).wav

Peak level 96.6 %
Extraction speed 3.1 X
Range quality 100.0 %
Test CRC 8C903C5E
Copy CRC 8C903C5E
Copy OK

No errors occurred

AccurateRip summary

Track 1 accurately ripped (confidence 1) [25403F3A] (AR v2)
Track 2 accurately ripped (confidence 1) [4F1398E1] (AR v2)
Track 3 accurately ripped (confidence 1) [005B9926] (AR v2)
Track 4 accurately ripped (confidence 1) [A7A2EB39] (AR v2)
Track 5 accurately ripped (confidence 1) [566ACF65] (AR v2)
Track 6 accurately ripped (confidence 1) [E0FE50EC] (AR v2)
Track 7 accurately ripped (confidence 1) [7AE430F7] (AR v2)
Track 8 accurately ripped (confidence 1) [01A7492E] (AR v2)
Track 9 accurately ripped (confidence 1) [4C8927C7] (AR v2)
Track 10 accurately ripped (confidence 1) [FCE31664] (AR v2)
Track 11 accurately ripped (confidence 1) [5F7578F5] (AR v2)
Track 12 accurately ripped (confidence 1) [B8647F58] (AR v2)
Track 13 accurately ripped (confidence 1) [54BF4420] (AR v2)
Track 14 accurately ripped (confidence 1) [F21A9657] (AR v2)
Track 15 accurately ripped (confidence 1) [FCB810A2] (AR v2)

All tracks accurately ripped

End of status report

---- CUETools DB Plugin V2.1.5

[CTDB TOCID: 1N5kkoZ0OJsbnFDoWnuJqCM2HB8-] disk not present in database
Submit result: 1N5kkoZ0OJsbnFDoWnuJqCM2HB8- has been uploaded

==== Log checksum 24AEAC76B22C0AA2774D4AA3862D5E254916509248FA275D3D475D0DB0E126C5 ====
Джерело: ворожий ресурс


Срібний реліз (на рейтинг впливає 50% завантаженого)
 Трекер:    Зареєстрований   

Завантажити / скачати українську музику



відео для новачків



 Зареєстрований:   2014-11-09 08:22
 Розмір:   408 MB 
 Оцінка музики:   4/10 (Голосів: 3)
   
Ваш часовий пояс: GMT + 2 Години

Нова тема   Відповісти