Завантажити та скачати торренти українською


Epolets | Дискографія (3 альбоми) (2013-2016) [FLAC] | Rock

Нові коментарі

Нова тема   Відповісти
Автор Повідомлення
vamp69 
Поважний учасник


З нами з: 06.07.09
Востаннє: 30.11.16
Повідомлень: 173

2014-11-08 11:46  
Epolets | Дискографія (3 альбоми) (2013-2016) [FLAC] | Rock




Стиль: Alternative Rock
Країна, місто: Україна, Одеса
Сайти: Офіційний сайт
Видавець: Epolets
Виконавці:
Павло Варениця – вокал, клавішні
Андрій Головерда – гітара, бек-вокал
Олександр Решетар – бас, бек-вокал
Ігор Смирнов - ударні
Альбоми:
2013 - Epolets

    01. No More (3:29)
    02. Pornofilm (3:31)
    03. Cold kiss (3:09)
    04. Rob my head (3:25)
    05. Give it away (4:02)
    06. Друг (5:02)
    07. Забули хто ми є (2:52)
    08. Be mine (4:00)
    09. В твоїх очах (3:22)
    10. Цвети (3:48)
    11. Dance Dance Dance (3:13)
    12. Bravery (3:16)
    13. Shut up! (3:42)

    Тривалість: 00:46:46
    Мова: українська (6, 7, 9), російська (10), англійська (1-5, 8, 11-13)
Лог
Exact Audio Copy V1.0 beta 3 from 29. August 2011

EAC extraction logfile from 8. November 2014, 11:01

Epolets / Epolets

Used drive : ATAPI iHAS124 B Adapter: 4 ID: 0

Read mode : Secure
Utilize accurate stream : Yes
Defeat audio cache : Yes
Make use of C2 pointers : No

Read offset correction : 6
Overread into Lead-In and Lead-Out : No
Fill up missing offset samples with silence : Yes
Delete leading and trailing silent blocks : No
Null samples used in CRC calculations : Yes
Used interface : Native Win32 interface for Win NT & 2000

Used output format : Internal WAV Routines
Sample format : 44.100 Hz; 16 Bit; Stereo

TOC of the extracted CD

Track | Start | Length | Start sector | End sector
---------------------------------------------------------
1 | 0:00.00 | 3:29.11 | 0 | 15685
2 | 3:29.11 | 3:31.37 | 15686 | 31547
3 | 7:00.48 | 3:08.40 | 31548 | 45687
4 | 10:09.13 | 3:25.00 | 45688 | 61062
5 | 13:34.13 | 4:02.17 | 61063 | 79229
6 | 17:36.30 | 5:02.00 | 79230 | 101879
7 | 22:38.30 | 2:51.63 | 101880 | 114767
8 | 25:30.18 | 3:59.38 | 114768 | 132730
9 | 29:29.56 | 3:22.01 | 132731 | 147881
10 | 32:51.57 | 3:47.48 | 147882 | 164954
11 | 36:39.30 | 3:13.06 | 164955 | 179435
12 | 39:52.36 | 3:16.14 | 179436 | 194149
13 | 43:08.50 | 3:41.48 | 194150 | 210772

Range status and errors

Selected range

Filename I:\Українська музика\Epolets\2013 - Epolets\2013 - Epolets.wav

Peak level 100.0 %
Extraction speed 6.0 X
Range quality 100.0 %
Test CRC 69F6F2E9
Copy CRC 69F6F2E9
Copy OK

No errors occurred

AccurateRip summary

Track 1 not present in database
Track 2 not present in database
Track 3 not present in database
Track 4 not present in database
Track 5 not present in database
Track 6 not present in database
Track 7 not present in database
Track 8 not present in database
Track 9 not present in database
Track 10 not present in database
Track 11 not present in database
Track 12 not present in database
Track 13 not present in database

None of the tracks are present in the AccurateRip database

End of status report

---- CUETools DB Plugin V2.1.3

[CTDB TOCID: urAK5gasOlZUSsXrOo7N7OZgrFk-] disk not present in database, Submit result: urAK5gasOlZUSsXrOo7N7OZgrFk- has been uploaded

==== Log checksum 627C016827029949D719F6CBBB646825088B3115918CFCD7648602538A35327B ====
2014 - Dogma

    01. Скiльки ще? (4:17)
    02. I belong to you (4:01)
    03. Де ти є? (4:40)
    04. Зраджуй (3:37)
    05. Парті он (4:01)
    06. Кожен новий день (4:07)
    07. Джейн (3:38)
    08. Лютий (4:28)
    09. No more (3:30)
    10. Pornofilm (3:28)

    Тривалість: 00:38:41
    Мова: українська, англійська (2,9,10)
Лог
Exact Audio Copy V1.0 beta 3 from 29. August 2011

EAC extraction logfile from 8. November 2014, 0:20

Epolets / Dogma

Used drive : ATAPI iHAS124 B Adapter: 4 ID: 0

Read mode : Secure
Utilize accurate stream : Yes
Defeat audio cache : Yes
Make use of C2 pointers : No

Read offset correction : 6
Overread into Lead-In and Lead-Out : No
Fill up missing offset samples with silence : Yes
Delete leading and trailing silent blocks : No
Null samples used in CRC calculations : Yes
Used interface : Native Win32 interface for Win NT & 2000

Used output format : Internal WAV Routines
Sample format : 44.100 Hz; 16 Bit; Stereo

TOC of the extracted CD

Track | Start | Length | Start sector | End sector
---------------------------------------------------------
1 | 0:00.00 | 4:16.51 | 0 | 19250
2 | 4:16.51 | 4:01.19 | 19251 | 37344
3 | 8:17.70 | 4:40.04 | 37345 | 58348
4 | 12:57.74 | 3:36.39 | 58349 | 74587
5 | 16:34.38 | 4:01.10 | 74588 | 92672
6 | 20:35.48 | 4:06.70 | 92673 | 111192
7 | 24:42.43 | 3:38.14 | 111193 | 127556
8 | 28:20.57 | 4:27.50 | 127557 | 147631
9 | 32:48.32 | 3:29.66 | 147632 | 163372
10 | 36:18.23 | 3:27.67 | 163373 | 178964

Range status and errors

Selected range

Filename I:\Українська музика\Epolets\2014 - Dogma\Epolets - 2014 - Dogma.wav

Peak level 100.0 %
Extraction speed 5.8 X
Range quality 100.0 %
Test CRC 8984DEDB
Copy CRC 8984DEDB
Copy OK

No errors occurred

AccurateRip summary

Track 1 not present in database
Track 2 not present in database
Track 3 not present in database
Track 4 not present in database
Track 5 not present in database
Track 6 not present in database
Track 7 not present in database
Track 8 not present in database
Track 9 not present in database
Track 10 not present in database

None of the tracks are present in the AccurateRip database

End of status report

---- CUETools DB Plugin V2.1.3

[CTDB TOCID: twh4w4IK_G4EJtTFCiFa32vOp2g-] disk not present in database, Submit result: twh4w4IK_G4EJtTFCiFa32vOp2g- has been uploaded

==== Log checksum 4B91EE0FA797D89EC39414E398094D2D3F18F4C52DBE7119D6E96D1307E85884 ====
2016 - Cult


01. Intro (02:17)
02. Залиш мене (03:29)
03. Скажи (03:39)
04. Мелодія (04:49)
05. Прага (03:26)
06. Ее глаза (03:54)
07. Malta (03:07)
08. Море (04:21)
09. Хей ти (03:14)
10. Нам выбирать (03:59)
11. Ниє це в мені (03:46)
12. At the end (02:35)

Тривалість: 00:42:42
Мова: українська (1, 3, 5-8, 11-12), російська (2, 9), англійська (4, 10)
log
Exact Audio Copy V1.0 beta 3 from 29. August 2011

EAC extraction logfile from 27. February 2016, 11:44

Epolets / Cult

Used drive : ATAPI iHAS124 B Adapter: 4 ID: 0

Read mode : Secure
Utilize accurate stream : Yes
Defeat audio cache : Yes
Make use of C2 pointers : No

Read offset correction : 6
Overread into Lead-In and Lead-Out : No
Fill up missing offset samples with silence : Yes
Delete leading and trailing silent blocks : No
Null samples used in CRC calculations : Yes
Used interface : Native Win32 interface for Win NT & 2000

Used output format : Internal WAV Routines
Sample format : 44.100 Hz; 16 Bit; Stereo

TOC of the extracted CD

Track | Start | Length | Start sector | End sector
---------------------------------------------------------
1 | 0:00.00 | 2:17.45 | 0 | 10319
2 | 2:17.45 | 3:29.05 | 10320 | 25999
3 | 5:46.50 | 3:39.72 | 26000 | 42496
4 | 9:26.47 | 4:49.68 | 42497 | 64239
5 | 14:16.40 | 3:26.64 | 64240 | 79753
6 | 17:43.29 | 3:54.39 | 79754 | 97342
7 | 21:37.68 | 3:07.24 | 97343 | 111391
8 | 24:45.17 | 4:21.11 | 111392 | 130977
9 | 29:06.28 | 3:14.00 | 130978 | 145527
10 | 32:20.28 | 3:59.23 | 145528 | 163475
11 | 36:19.51 | 3:46.28 | 163476 | 180453
12 | 40:06.04 | 2:36.15 | 180454 | 192168

Range status and errors

Selected range

Filename I:\Українська музика\Epolets - 2 Albums (2013, 2014) lossless\2016 - Cult\Epolets - 2016 - Cult.wav

Peak level 100.0 %
Extraction speed 5.8 X
Range quality 99.9 %
Test CRC D4AAA4F1
Copy CRC D4AAA4F1
Copy OK

No errors occurred

AccurateRip summary

Track 1 not present in database
Track 2 not present in database
Track 3 not present in database
Track 4 not present in database
Track 5 not present in database
Track 6 not present in database
Track 7 not present in database
Track 8 not present in database
Track 9 not present in database
Track 10 not present in database
Track 11 not present in database
Track 12 not present in database

None of the tracks are present in the AccurateRip database

End of status report

==== Log checksum 37F9BC1DF2DAED09D6A7C4F0D67F9CA3155543381BA8CC92842C45BEC9BC7B2B ====
Тривалість: 02:09:18
Мова: українська, російська, англійська
Аудіо-кодек: FLAC
Бітрейт: ~965 кб/с
Джерело: мій CD

Якщо Ви справді бажаєте підтримати українське - після прослуховування, якщо музика вам сподобалась, придбайте ліцензійний диск. Підтримаймо вітчизняних виконавців!


Срібний реліз (на рейтинг впливає 50% завантаженого)
 Трекер:    Зареєстрований   

Завантажити / скачати українську музику



відео для новачків



 Зареєстрований:   2016-02-27 14:51
 Розмір:   939 MB 
 Оцінка музики:   9.9/10 (Голосів: 12)
   
AndrewFG 
VIP


З нами з: 31.10.10
Востаннє: 06.12.16
Повідомлень: 267

2015-07-12 23:08  
Цікава група.
vamp69 
Поважний учасник


З нами з: 06.07.09
Востаннє: 30.11.16
Повідомлень: 173

2016-02-27 14:51  
Торено оновлено!
- додав новий альбом "Cult"

Ваш часовий пояс: GMT + 2 Години

Нова тема   Відповісти