Завантажити та скачати торренти українською


За бортом / Overboard (1987) 720p 2хUkr/Eng | Sub Eng

Нові коментарі

Нова тема   Відповісти
Автор Повідомлення
Anonymous 







2014-11-07 17:46  
За бортом / Overboard (1987) 720p 2хUkr/Eng | Sub Eng



Альтернативний та оригінальний постери




Жанр: комедія, мелодрама
Країна: США



Кінокомпанія: Hawn / Sylbert Movie Company, Metro-Goldwyn-Mayer (MGM), Star Partners
Режисер: Гарі Маршал / Garry Marshall
Актори: Голді Хоун / Goldie Hawn, Курт Расел / Kurt Russell, Едвард Германн / Edward Herrmann, Кетерін Гелмонд / Katherine Helmond, Майкл Хогерті / Mike Hagerty, Роді МакДавелл / Roddy McDowall та інші

Сюжет:
Джоанна Стейтон - владна, зарозуміла й непоступлива дружина самовпевненого власника яхти. Коли їх посудина зупиняється для ремонту у невеличкому містечку, сварлива й химерна Джоанна наймає теслю Діна Проффітта, щоб той змайстрував їй нову шафку. Але замість платні за роботу Діна жбурнули з яхти, тому що Джоанна ніколи нічим не буває задоволена.

Але цього разу її фірмові вихиляси закінчуються тим, що вона падає за борт і геть втрачає пам'ять. А Дін тим часом здійснює неперевершений план помсти: він забирає Джоанну до себе, дає їй нове ім'я Енн й називає своєю дружиною й матір'ю своїх чотирьох неслухняних синів...


Рейтинг MPAA: PG - рекомендується присутність батьків
Вікова категорія: 12+

Тривалість: 01:52:10
Якість: 720p
Відео:
кодек:
розмір кадру: 1280x696
бітрейт: 6273 кбіт/с

Аудіо # 1:
мова: українська
переклад: багатоголосий закадровий - Так Треба Продакшн
ролі озвучили: Курт Расел — Олег Стальчук, Володимир Терещук і два жіночих голоси
кодек: 2.0
бітрейт: 224 кб/с

Аудіо # 2:
мова: українська
переклад: багатоголосий закадровий - Так Треба Продакшн (ранній варіант, трансляція невідома)
ролі озвучили: Курт Расел — Анатолій Зіновенко, Юрій Гребельник і один чи два жіночих голоси
кодек: 2.0
бітрейт: 224 кб/с

Аудіо # 3:
мова: англійська
переклад: оригінал
кодек: 2.0
бітрейт: 1509 кб/с

Субтитри:
мова: англійська
тип: програмні (м'які)
формат: *.srt
MediaInfo
Код:
General
Unique ID                                : 227291566380001523500589657607847270309 (0xAAFEC36CDBAACFADA1C56F66A007D7A5)
Complete name                            : Overboard (1987) [2xUkr,Eng sub.Eng] 720p [Hurtom & HDClub].mkv
Format                                   : Matroska
Format version                           : Version 4 / Version 2
File size                                : 6.45 GiB
Duration                                 : 1h 52mn
Overall bit rate                         : 8 231 Kbps
Movie name                               : За бортом / Overboard (1987) [2xUkr,Eng sub.Eng] 720p [Hurtom & HDClub]
Encoded date                             : UTC 2014-11-07 07:52:45
Writing application                      : mkvmerge v7.3.0 ('Nouages') 64bit built on Oct 22 2014 18:53:34
Writing library                          : libebml v1.3.0 + libmatroska v1.4.1
DURATION                                 : 01:52:10.368000000
NUMBER_OF_FRAMES                         : 210324
NUMBER_OF_BYTES                          : 188450304
_STATISTICS_WRITING_APP                  : mkvmerge v7.3.0 ('Nouages') 64bit built on Oct 22 2014 18:53:34
_STATISTICS_WRITING_DATE_UTC             : 2014-11-07 07:52:45
_STATISTICS_TAGS                         : BPS DURATION NUMBER_OF_FRAMES NUMBER_OF_BYTES

Video
ID                                       : 1
Format                                   : AVC
Format/Info                              : Advanced Video Codec
Format profile                           : [email protected]
Format settings, CABAC                   : Yes
Format settings, ReFrames                : 8 frames
Codec ID                                 : V_MPEG4/ISO/AVC
Duration                                 : 1h 52mn
Bit rate                                 : 6 273 Kbps
Width                                    : 1 280 pixels
Height                                   : 696 pixels
Display aspect ratio                     : 1.85:1
Frame rate mode                          : Constant
Frame rate                               : 23.976 fps
Color space                              : YUV
Chroma subsampling                       : 4:2:0
Bit depth                                : 8 bits
Scan type                                : Progressive
Bits/(Pixel*Frame)                       : 0.294
Stream size                              : 4.79 GiB (74%)
Title                                    : За бортом / Overboard (1987) 720p [HDClub-Voland]
Writing library                          : core 110 r1820 fdcf2ae
Encoding settings                        : cabac=1 / ref=8 / deblock=1:-2:-2 / analyse=0x3:0x113 / me=tesa / subme=10 / psy=1 / psy_rd=1.20:0.10 / mixed_ref=1 / me_range=32 / chroma_me=1 / trellis=2 / 8x8dct=1 / cqm=0 / deadzone=21,11 / fast_pskip=0 / chroma_qp_offset=-3 / threads=6 / sliced_threads=0 / nr=0 / decimate=1 / interlaced=0 / constrained_intra=0 / bframes=6 / b_pyramid=2 / b_adapt=2 / b_bias=0 / direct=3 / weightb=1 / open_gop=0 / weightp=2 / keyint=250 / keyint_min=23 / scenecut=40 / intra_refresh=0 / rc_lookahead=40 / rc=2pass / mbtree=0 / bitrate=6273 / ratetol=1.0 / qcomp=0.60 / qpmin=10 / qpmax=51 / qpstep=4 / cplxblur=20.0 / qblur=0.5 / vbv_maxrate=50000 / vbv_bufsize=62500 / ip_ratio=1.40 / pb_ratio=1.30 / aq=1:1.00 / nal_hrd=none
Language                                 : English
Default                                  : Yes
Forced                                   : No

Audio #1
ID                                       : 2
Format                                   : AC-3
Format/Info                              : Audio Coding 3
Mode extension                           : CM (complete main)
Format settings, Endianness              : Big
Codec ID                                 : A_AC3
Duration                                 : 1h 52mn
Bit rate mode                            : Constant
Bit rate                                 : 224 Kbps
Channel(s)                               : 2 channels
Channel positions                        : Front: L R
Sampling rate                            : 48.0 KHz
Bit depth                                : 16 bits
Compression mode                         : Lossy
Stream size                              : 180 MiB (3%)
Title                                    : MVO [ICTV-TakTrebaProduction] 2.0 224 kbps [Hurtom-rooster,xslim]
Language                                 : Ukrainian
Default                                  : Yes
Forced                                   : No

Audio #2
ID                                       : 3
Format                                   : AC-3
Format/Info                              : Audio Coding 3
Mode extension                           : CM (complete main)
Format settings, Endianness              : Big
Codec ID                                 : A_AC3
Duration                                 : 1h 52mn
Bit rate mode                            : Constant
Bit rate                                 : 224 Kbps
Channel(s)                               : 2 channels
Channel positions                        : Front: L R
Sampling rate                            : 48.0 KHz
Bit depth                                : 16 bits
Compression mode                         : Lossy
Stream size                              : 180 MiB (3%)
Title                                    : MVO [TakTrebaProduction] 2.0 224 kbps [Hurtom-rooster,Atmesh]
Language                                 : Ukrainian
Default                                  : No
Forced                                   : No

Audio #3
ID                                       : 4
Format                                   :
Format/Info                              : Digital Theater Systems
Mode                                     : 16
Format settings, Endianness              : Big
Codec ID                                 : A_DTS
Duration                                 : 1h 52mn
Bit rate mode                            : Constant
Bit rate                                 : 1 509 Kbps
Channel(s)                               : 2 channels
Channel positions                        : Front: L R
Sampling rate                            : 48.0 KHz
Bit depth                                : 24 bits
Compression mode                         : Lossy
Stream size                              : 1.18 GiB (18%)
Title                                    : Original 5.1 1509 kbps
Language                                 : English
Default                                  : No
Forced                                   : No

Text
ID                                       : 5
Format                                   : UTF-8
Codec ID                                 : S_TEXT/UTF8
Codec ID/Info                            : UTF-8 Plain Text
Language                                 : English
Default                                  : No
Forced                                   : No




Джерела та подяки: &
ріп відео, оригінальні звук та субтитри - Voland (HDClub); українські доріжки - rooster - зведення, xslim (1), Atmesh (2) - запис з ТБ; українізовані постери - rooster; фільмографії акторів та інформація про озвучення - Віктор (всі - Гуртом).


ЗАЛИШАЙТЕСЬ ЯКОМОГА ДОВШЕ НА РОЗДАЧІ!

СКАЧАВ САМ - ДАЙ СКАЧАТИ ІНШИМ


Срібний реліз (на рейтинг впливає 50% завантаженого)
 Трекер:    Зареєстрований   

Завантажити / скачати фільм українською



відео для новачків



 Зареєстрований:   2014-11-07 17:46
 Розмір:   6.45 GB 
 Оцінка фільму:   5.6/10 (Голосів: 21)
   
Інші релізи
   За бортом / Overboard (1987) Remux 1080p 3xUkr/Eng | Sub Eng Alex60  2 / 0   30.05 GB   2015-09-05 19:29 
   За бортом / Overboard (1987) 1080p 3xUkr/Eng | Sub Eng Alex60  2 / 0   12.67 GB   2015-09-05 19:17 
   За бортом / Overboard (1987) 3xUkr/Eng | Sub Eng omm  5 / 2   1.95 GB   2015-03-01 17:36 
   За бортом / Overboard (1987) 2хUkr/Eng | Sub Eng rooster  3 / 0   2.01 GB   2011-02-26 02:00 
   За бортом / Overboard (1987) Ukr/Eng | Sub Eng rooster  2 / 0   2.19 GB   2010-10-07 17:31 
lpershyi 
Попереджень: 2
Попереджень: 2 


З нами з: 04.01.11
Востаннє: 30.11.16
Повідомлень: 2622

2014-11-07 18:06  
Цікаві українізовнаі постери - окрема подяка, а то в інших релізах, наприклад тут ігнорують українізацію.
Anonymous 







2014-11-07 18:10  
Я завжди шукаю та ставлю українізовані постери. Основним - якщо він мені подобається, або під спойлер, якщо є кращий.
Vigor1964 
Новенький


З нами з: 14.05.10
Востаннє: 21.11.16
Повідомлень: 2

2014-11-14 22:32  
Молодець тезка "igor911" . справно зреагував і відкинув "непотрібний" реліз якогось зайди! "Дякую"

Додано через 7 хвилин 11 секунд:

2.5 Публічно виявляти неповагу до дій модератора або адміністратора

вибач за неповагу, але треба якось по простому пояснювати ...

Anonymous 







2014-11-15 00:02  
Vigor1964 написано:
А взагалі можете і видалити фільм, якщо щось вас не влаштовує.

Vigor1964 написано:
Скачувати і роздавати буду і далі, але релізи не для мене.

Ти ж відмовився виправити свій реліз згідно Правил, тому я це зробив сам.

Ваш часовий пояс: GMT + 2 Години

Нова тема   Відповісти