Завантажити та скачати торренти українською


Птаха / Пташка / Birdy (1984) 720p 2хUkr/Eng | Sub Eng

Нові коментарі

Нова тема   Відповісти
Автор Повідомлення
Anonymous 







2014-11-07 08:57  
Птаха / Пташка / Birdy (1984) 720p 2хUkr/Eng | Sub Eng



Альтернативний постер



Жанр: драма, військовий
Країна: США



Ґран-прі Каннського кінофестивалю, 1985 рік

Кінокомпанія: A&M Films, TriStar Pictures
Режисер: Алан Паркер / Alan Parker
Актори: Ніколас Кейдж / Nicolas Cage, Метью Модайн / Matthew Modine, Джон Харкінс / John Harkins, Сенді Берон / Sandy Baron, Карен Янг / Karen Young, Бруно Кірбі / Bruno Kirby, Ненсі Фіш / Nancy Fish та інші

Сюжет:
Фільм знятий за однойменним романом-бестселером Вільяма Вортона про дружбу двох несхожих хлопців — чутливого, вразливого Птахи та задиристого веселуна Ела. Вони протилежності, але є між ними і спільне. М'ясорубка війни у В'єтнамі зробить їх іншими людьми.

Ел не зможе вже бути таким безтурботним веселуном, а у Птахи і зовсім поїде дах - він замкнеться в собі, вважаючи себе пташкою.

Заради їх колишньої дружби, Ел повинен достукатися до свого друга, повернути йому здоровий глузд, витягнути людину з пташиної клітки, в яку той добровільно ув'язнив себе, ховаючись від жахіття війни.


Рейтинг MPAA: R - особам до 17 років обов'язкова присутність батьків або дорослого опікуна
Вікова категорія: 15+

Тривалість: 02:00:08
Якість: 720p
Відео:
кодек:
розмір кадру: 1280x718
бітрейт: 3973 кбіт/с

Аудіо # 1:
мова: українська
переклад: багатоголосий закадровий
ролі озвучили: Євген Пашин, Володимир Терещук, Дмитро Терещук і один жіночий голос
кодек: 2.0
бітрейт: 192 кбіт/с

Аудіо # 2:
мова: українська
переклад: багатоголосий закадровий
ролі озвучили: Ніколас Кейдж — Олег Стальчук, Дмитро Терещук, Сергій Ладєсов? і Наталя Поліщук?
кодек: 2.0
бітрейт: 192 кбіт/с

Аудіо # 3:
мова: англійська
переклад: оригінал
кодек: 5.1
бітрейт: 448 кбіт/с

Субтитри:
мова: англійська (2 вида)
тип: програмні (м'які)
формат: *.srt

Збережено оригінальні розділи.
MediaInfo
Код:
General
Unique ID                                : 226431720666757945018537228322165933730 (0xAA5929C22CC4E49C8CD55C4740A2C6A2)
Complete name                            : Birdy (1984) [2xUkr,Eng sub.Eng] 720p [Hurtom & HDClub].mkv
Format                                   : Matroska
Format version                           : Version 4 / Version 2
File size                                : 4.11 GiB
Duration                                 : 2h 0mn
Overall bit rate                         : 4 903 Kbps
Movie name                               : Птаха / Birdy (1984) [2xUkr,Eng sub.Eng] 720p [Hurtom & HDClub]
Encoded date                             : UTC 2014-11-06 21:13:40
Writing application                      : mkvmerge v7.3.0 ('Nouages') 64bit built on Oct 22 2014 18:53:34
Writing library                          : libebml v1.3.0 + libmatroska v1.4.1
DURATION                                 : 01:59:14.530000000
NUMBER_OF_FRAMES                         : 1298
NUMBER_OF_BYTES                          : 42613
_STATISTICS_WRITING_APP                  : mkvmerge v7.3.0 ('Nouages') 64bit built on Oct 22 2014 18:53:34
_STATISTICS_WRITING_DATE_UTC             : 2014-11-06 21:13:40
_STATISTICS_TAGS                         : BPS DURATION NUMBER_OF_FRAMES NUMBER_OF_BYTES

Video
ID                                       : 1
Format                                   : AVC
Format/Info                              : Advanced Video Codec
Format profile                           : [email protected]
Format settings, CABAC                   : No
Format settings, ReFrames                : 2 frames
Format settings, GOP                     : N=1
Codec ID                                 : V_MPEG4/ISO/AVC
Duration                                 : 2h 0mn
Bit rate                                 : 3 973 Kbps
Width                                    : 1 280 pixels
Height                                   : 718 pixels
Display aspect ratio                     : 16:9
Frame rate mode                          : Constant
Frame rate                               : 23.976 fps
Color space                              : YUV
Chroma subsampling                       : 4:2:0
Bit depth                                : 8 bits
Scan type                                : Progressive
Bits/(Pixel*Frame)                       : 0.180
Stream size                              : 3.33 GiB (81%)
Title                                    : Птаха / Пташка / Birdy (1984) 720p
Language                                 : English
Default                                  : Yes
Forced                                   : No
Color primaries                          : BT.709
Transfer characteristics                 : BT.709
Matrix coefficients                      : BT.709

Audio #1
ID                                       : 2
Format                                   : AC-3
Format/Info                              : Audio Coding 3
Mode extension                           : CM (complete main)
Format settings, Endianness              : Big
Codec ID                                 : A_AC3
Duration                                 : 2h 0mn
Bit rate mode                            : Constant
Bit rate                                 : 192 Kbps
Channel(s)                               : 2 channels
Channel positions                        : Front: L R
Sampling rate                            : 48.0 KHz
Bit depth                                : 16 bits
Compression mode                         : Lossy
Stream size                              : 165 MiB (4%)
Title                                    : MVO [ICTV] 2.0 192 kbps [Hurtom-patriot2305,MAKAPOHHIK]
Language                                 : Ukrainian
Default                                  : Yes
Forced                                   : No

Audio #2
ID                                       : 3
Format                                   : AC-3
Format/Info                              : Audio Coding 3
Mode extension                           : CM (complete main)
Format settings, Endianness              : Big
Codec ID                                 : A_AC3
Duration                                 : 2h 0mn
Bit rate mode                            : Constant
Bit rate                                 : 192 Kbps
Channel(s)                               : 2 channels
Channel positions                        : Front: L R
Sampling rate                            : 48.0 KHz
Bit depth                                : 16 bits
Compression mode                         : Lossy
Stream size                              : 165 MiB (4%)
Title                                    : MVO 2.0 192 kbps [Hurtom-MAKAPOHHIK]
Language                                 : Ukrainian
Default                                  : No
Forced                                   : No

Audio #3
ID                                       : 4
Format                                   : AC-3
Format/Info                              : Audio Coding 3
Mode extension                           : CM (complete main)
Format settings, Endianness              : Big
Codec ID                                 : A_AC3
Duration                                 : 2h 0mn
Bit rate mode                            : Constant
Bit rate                                 : 448 Kbps
Channel(s)                               : 6 channels
Channel positions                        : Front: L C R, Side: L R, LFE
Sampling rate                            : 48.0 KHz
Bit depth                                : 16 bits
Compression mode                         : Lossy
Stream size                              : 385 MiB (9%)
Title                                    : Original 5.1 448 kbps
Language                                 : English
Default                                  : No
Forced                                   : No

Text #1
ID                                       : 5
Format                                   : UTF-8
Codec ID                                 : S_TEXT/UTF8
Codec ID/Info                            : UTF-8 Plain Text
Title                                    : Full #1
Language                                 : English
Default                                  : No
Forced                                   : No

Text #2
ID                                       : 6
Format                                   : UTF-8
Codec ID                                 : S_TEXT/UTF8
Codec ID/Info                            : UTF-8 Plain Text
Title                                    : Full #2
Language                                 : English
Default                                  : No
Forced                                   : No

Menu
00:00:00.000                             : en:START
00:02:42.000                             : en:AL COLUMBATO
00:07:49.000                             : en:BIRDY
00:10:32.000                             : en:PIGEONS
00:13:34.000                             : en:BIRDMEN OF PHILLY
00:23:05.000                             : en:VISITING HIS FRIEND
00:26:40.000                             : en:NURSE HANNAH
00:29:10.000                             : en:OUT OF BUSINESS
00:33:29.000                             : en:'53 FORD
00:38:14.000                             : en:HUNT'S PIER
00:43:11.000                             : en:JAILBIRDS
00:46:48.000                             : en:HEARTBREAKER
00:48:59.000                             : en:NOT HIS CAR TO SELL
01:01:48.000                             : en:THEORY OF FLIGHT
01:06:27.000                             : en:FLAPPING POWER
01:08:11.000                             : en:ICARUS
01:10:20.000                             : en:"A SMILE'S A SMILE"
01:14:38.000                             : en:JOE SAGESSA
01:19:59.000                             : en:CAT-ASTROPHE
01:22:16.000                             : en:TOUGH LOVE
01:26:36.000                             : en:"PERTA & I BECOME ONE."
01:30:05.000                             : en:THE PROM
01:31:56.000                             : en:DORIS MAKES HER MOVE
01:36:46.000                             : en:DREAM FLIGHT
01:45:46.000                             : en:CRASH LANDING
01:50:04.000                             : en:NOT LEAVING HIM
01:54:13.000                             : en:"HE TALKED!"
01:55:39.000                             : en:ON THE ROOF




Джерела та подяки: &
відео, оригінальні звук та субтитри - shuriken331 (HDClub); українські доріжки - patriot2305 (1), MAKAPOHHIK (2) - зведення, MAKAPOHHIK - запис з ТБ (1, 2); фільмографії акторів та інформація про озвучення - Віктор (всі - Гуртом).


ЗАЛИШАЙТЕСЬ ЯКОМОГА ДОВШЕ НА РОЗДАЧІ!

СКАЧАВ САМ - ДАЙ СКАЧАТИ ІНШИМ


Срібний реліз (на рейтинг впливає 50% завантаженого)
 Трекер:    Зареєстрований   

Завантажити / скачати фільм українською



відео для новачків



 Зареєстрований:   2014-11-07 08:57
 Розмір:   4.11 GB 
 Оцінка фільму:   4.2/10 (Голосів: 17)
   
Інші релізи
   Птаха / Пташка / Birdy (1984) 2хUkr patriot2305  4 / 0   1.61 GB   2013-08-03 09:52 
Teren 
Частий відвідувач


З нами з: 06.01.10
Востаннє: 10.12.16
Повідомлень: 33

2014-11-07 14:04  
Цитата:
чутливого, вразливого Птахи ти задиристого веселуна Ела


мабуть та

Anonymous 







2014-11-08 09:30  
виправив
Maters 
VIP


З нами з: 27.03.12
Востаннє: 08.12.16
Повідомлень: 1162

2014-11-12 20:09  
Блін, дуже крутий фільм))) Десь посередині трошки нуднувато було, але загалні враження хороші)) Дуже сподобалось на якій ноті закінчився фільм))) І ще, хочу віддати належне композитору - музика на всі 100 відповідала моментам))) Дякую!
bohdk 
Відео Гуртом - субтитрування
Відео Гуртом - субтитрування


З нами з: 23.10.09
Востаннє: 10.12.16
Повідомлень: 561

2014-11-12 22:26  
Вперше оглянув цей фільм десь років двадцять скількись тому. Враження ще до сих пір пам'ятаю. Сильна картина.
Ваш часовий пояс: GMT + 2 Години

Нова тема   Відповісти