Завантажити та скачати торренти українською


Джек-стрибунець / Jumpin' Jack Flash (1986) 720p Ukr/Eng | Sub Ukr/Eng

Нові коментарі

Нова тема   Відповісти
Автор Повідомлення
Anonymous 







2014-11-06 19:32  
Джек-стрибунець / Jumpin' Jack Flash (1986) 720p Ukr/Eng | Sub Ukr/Eng



Жанр: трилер, мелодрама, комедія
Країна: США



Кінокомпанія: Lawrence Gordon Productions, Silver Pictures, Twentieth Century Fox Film Corporation
Режисер: Пенні Маршал / Penny Marshall
Актори: Вупі Ґолдберґ / Whoopi Goldberg, Стівен Коллінз / Stephen Collins, Джон Вуд / John Wood, Керол Кейн / Carol Kane, Енні Поттс / Annie Potts, Пітер Майкл Гец / Peter Michael Goetz, Джонатан Прайс / Jonathan Pryce, Джеймс Белуші / James Belushi та інші

Сюжет:
Террі працює у банку, і використовує комп'ютер для спілкування з клієнтами в усьому світі. Одного разу вона отримує закодоване повідомлення з невідомого джерела. Після розшифровки повідомлення, Террі потрапляє у вихор подій дуже небезпечної шпигунської гри. Не зважаючи на переслідування, Террі залишається в контакті з цим невідомим, та допомагає йому врятуватись.


Рейтинг MPAA: R - особам до 17 років обов'язкова присутність батьків або дорослого опікуна
Вікова категорія: 12+

Тривалість: 01:45:17
Якість: 720p
Відео:
кодек:
розмір кадру: 1280x694
бітрейт: 9280 кбіт/с [crf=17.5]

Аудіо # 1:
мова: українська
переклад: двоголосий закадровий - Студія 1+1
ролі озвучили: Олена Узлюк та Анатолій Пашнін
кодек: 2.0
бітрейт: 192 кбіт/с

Аудіо # 2:
мова: англійська
переклад: оригінал
кодек: 5.1
бітрейт: 1510 кбіт/с

Субтитри # 1:
мова: українська (повні)
тип: програмні (м'які)
формат: *.srt

Субтитри # 2:
мова: англійська (повні)
тип: програмні (м'які)
формат: *.srt

Збережено оригінальні розділи, як на Blu-ray.
MediaInfo та log
Код:
General
Unique ID                                : 177051199368775327037214431677582470791 (0x8532D21678E7CD44AE8AF945B9B8EE87)
Complete name                            : Jumping Jack Flash (1986) [Ukr,Eng sub.Ukr,Eng] 720p [Hurtom & HDClub].mkv
Format                                   : Matroska
Format version                           : Version 4 / Version 2
File size                                : 8.08 GiB
Duration                                 : 1h 45mn
Overall bit rate                         : 11.0 Mbps
Movie name                               : Джек-стрибунець / Jumpin' Jack Flash (1986) [Ukr,Eng sub.Ukr/Eng] 720p [Hurtom & HDClub]
Encoded date                             : UTC 2014-11-06 15:08:43
Writing application                      : mkvmerge v7.3.0 ('Nouages') 64bit built on Oct 22 2014 18:53:34
Writing library                          : libebml v1.3.0 + libmatroska v1.4.1
DURATION                                 : 01:44:50.117000000
NUMBER_OF_FRAMES                         : 1742
NUMBER_OF_BYTES                          : 59994
_STATISTICS_WRITING_APP                  : mkvmerge v7.3.0 ('Nouages') 64bit built on Oct 22 2014 18:53:34
_STATISTICS_WRITING_DATE_UTC             : 2014-11-06 15:08:43
_STATISTICS_TAGS                         : BPS DURATION NUMBER_OF_FRAMES NUMBER_OF_BYTES

Video
ID                                       : 1
Format                                   : AVC
Format/Info                              : Advanced Video Codec
Format profile                           : [email protected]
Format settings, CABAC                   : Yes
Format settings, ReFrames                : 8 frames
Codec ID                                 : V_MPEG4/ISO/AVC
Duration                                 : 1h 45mn
Bit rate                                 : 9 068 Kbps
Width                                    : 1 280 pixels
Height                                   : 694 pixels
Display aspect ratio                     : 1.85:1
Frame rate mode                          : Constant
Frame rate                               : 23.976 fps
Color space                              : YUV
Chroma subsampling                       : 4:2:0
Bit depth                                : 8 bits
Scan type                                : Progressive
Bits/(Pixel*Frame)                       : 0.426
Stream size                              : 6.67 GiB (83%)
Title                                    : Джек-стрибунець / Jumpin' Jack Flash / Джек-попрыгунчик (1986) [HDClub-manofgod]
Writing library                          : core 142 r2479 dd79a61
Encoding settings                        : cabac=1 / ref=8 / deblock=1:-3:-3 / analyse=0x3:0x113 / me=umh / subme=11 / psy=1 / psy_rd=1.10:0.00 / mixed_ref=1 / me_range=32 / chroma_me=1 / trellis=2 / 8x8dct=1 / cqm=0 / deadzone=21,11 / fast_pskip=0 / chroma_qp_offset=-2 / threads=6 / lookahead_threads=1 / sliced_threads=0 / nr=0 / decimate=1 / interlaced=0 / bluray_compat=0 / constrained_intra=0 / bframes=8 / b_pyramid=2 / b_adapt=2 / b_bias=0 / direct=3 / weightb=1 / open_gop=0 / weightp=2 / keyint=240 / keyint_min=23 / scenecut=40 / intra_refresh=0 / rc_lookahead=40 / rc=crf / mbtree=0 / crf=17.5 / qcomp=0.70 / qpmin=0 / qpmax=69 / qpstep=4 / vbv_maxrate=50000 / vbv_bufsize=62500 / crf_max=0.0 / nal_hrd=none / filler=0 / ip_ratio=1.40 / pb_ratio=1.30 / aq=2:0.70
Language                                 : English
Default                                  : Yes
Forced                                   : No
DURATION                                 : 01:45:17.270000000
NUMBER_OF_FRAMES                         : 151463
NUMBER_OF_BYTES                          : 7330670877
_STATISTICS_WRITING_APP                  : mkvmerge v7.3.0 ('Nouages') 64bit built on Oct 22 2014 18:53:34
_STATISTICS_WRITING_DATE_UTC             : 2014-11-06 15:08:43
_STATISTICS_TAGS                         : BPS DURATION NUMBER_OF_FRAMES NUMBER_OF_BYTES

Audio #1
ID                                       : 2
Format                                   : AC-3
Format/Info                              : Audio Coding 3
Mode extension                           : CM (complete main)
Format settings, Endianness              : Big
Codec ID                                 : A_AC3
Duration                                 : 1h 45mn
Bit rate mode                            : Constant
Bit rate                                 : 192 Kbps
Channel(s)                               : 2 channels
Channel positions                        : Front: L R
Sampling rate                            : 48.0 KHz
Bit depth                                : 16 bits
Compression mode                         : Lossy
Stream size                              : 145 MiB (2%)
Title                                    : DVO [1+1] 2.0 192 kbps [Hurtom-4erkov]
Language                                 : Ukrainian
Default                                  : Yes
Forced                                   : No

Audio #2
ID                                       : 3
Format                                   :
Format/Info                              : Digital Theater Systems
Mode                                     : 16
Format settings, Endianness              : Big
Codec ID                                 : A_DTS
Duration                                 : 1h 45mn
Bit rate mode                            : Constant
Bit rate                                 : 1 510 Kbps
Channel(s)                               : 6 channels
Channel positions                        : Front: L C R, Side: L R, LFE
Sampling rate                            : 48.0 KHz
Bit depth                                : 16 bits
Compression mode                         : Lossy
Stream size                              : 1.11 GiB (14%)
Title                                    : Original 5.1 1509 kbps
Language                                 : English
Default                                  : No
Forced                                   : No

Text #1
ID                                       : 4
Format                                   : UTF-8
Codec ID                                 : S_TEXT/UTF8
Codec ID/Info                            : UTF-8 Plain Text
Title                                    : Ukr full
Language                                 : Ukrainian
Default                                  : No
Forced                                   : No

Text #2
ID                                       : 5
Format                                   : UTF-8
Codec ID                                 : S_TEXT/UTF8
Codec ID/Info                            : UTF-8 Plain Text
Title                                    : Eng full
Language                                 : English
Default                                  : No
Forced                                   : No

Menu
00:00:00.000                             : en:Chapter 01
00:11:04.413                             : en:Chapter 02
00:20:34.357                             : en:Chapter 03
00:31:20.377                             : en:Chapter 04
00:40:56.202                             : en:Chapter 05
00:50:41.704                             : en:Chapter 06
01:00:01.514                             : en:Chapter 07
01:10:11.207                             : en:Chapter 08
01:21:31.136                             : en:Chapter 09
01:32:37.009                             : en:Chapter 10


Код:
raw [info]: 1280x694p 1:1 @ 24000/1001 fps (cfr)
[info]: using SAR=1/1
[info]: using cpu capabilities: MMX2 SSE2Fast SSSE3 SSE4.2 AVX
[info]: profile High, level 4.1
[info]: frame I:1133  Avg QP:16.82  size:113527
[info]: frame P:27399 Avg QP:17.94  size: 70543
[info]: frame B:122931 Avg QP:20.21  size: 42863
[info]: consecutive B-frames:  1.1%  0.7%  2.3% 10.4% 15.7% 49.2%  9.8%  5.4%  5.3%
[info]: mb I  I16..4:  1.6% 90.8%  7.7%
[info]: mb P  I16..4:  0.4% 25.4%  1.0%  P16..4: 24.2% 34.1% 13.9%  0.0%  0.0%    skip: 1.0%
[info]: mb B  I16..4:  0.0%  5.1%  0.1%  B16..8: 41.4% 27.5%  7.3%  direct:11.5%  skip: 7.0%  L0:47.9% L1:39.9% BI:12.2%
[info]: 8x8 transform intra:95.5% inter:62.2%
[info]: direct mvs  spatial:100.0% temporal:0.0%
[info]: coded y,uvDC,uvAC intra: 97.2% 83.8% 42.0% inter: 72.2% 48.8% 2.3%
[info]: i16 v,h,dc,p: 23% 54%  5% 18%
[info]: i8 v,h,dc,ddl,ddr,vr,hd,vl,hu: 10%  6%  7% 11% 15% 14% 12% 12% 12%
[info]: i4 v,h,dc,ddl,ddr,vr,hd,vl,hu: 17%  8%  3%  9% 15% 15% 12% 11% 10%
[info]: i8c dc,h,v,p: 40% 24% 20% 15%
[info]: Weighted P-Frames: Y:6.9% UV:2.7%
[info]: ref P L0: 35.8%  9.6% 19.1% 10.4%  8.3%  6.8%  5.7%  4.0%  0.3%  0.0%
[info]: ref B L0: 59.1% 16.6% 10.5%  6.0%  4.7%  2.4%  0.8%
[info]: ref B L1: 87.2% 12.8%
[info]: kb/s:9283.34
encoded 151463 frames, 2.58 fps, 9283.34 kb/s




Джерела та подяки: &
ріп відео, оригінальні звук та субтитри - manofgod (HDClub); українська доріжка - Snuryus - зведення, 4erkov - запис з ТБ; українські субтитри - DVD R5; фільмографії акторів та інформація про озвучення - Віктор (всі - Гуртом).


ЗАЛИШАЙТЕСЬ ЯКОМОГА ДОВШЕ НА РОЗДАЧІ!

СКАЧАВ САМ - ДАЙ СКАЧАТИ ІНШИМ


Срібний реліз (на рейтинг впливає 50% завантаженого)
 Трекер:    Зареєстрований   

Завантажити / скачати фільм українською



відео для новачків



 Зареєстрований:   2014-11-06 19:32
 Розмір:   8.08 GB 
 Оцінка фільму:   5.2/10 (Голосів: 19)
   
Інші релізи
Boyavor 
Свій


З нами з: 03.10.12
Востаннє: 06.12.16
Повідомлень: 65

2016-12-06 10:43  
Супер
Ваш часовий пояс: GMT + 2 Години

Нова тема   Відповісти