Завантажити та скачати торренти українською


Старі машини / Used Cars (1980) 720p Ukr/Eng | Sub Eng

Нові коментарі

Нова тема   Відповісти
Автор Повідомлення
Anonymous 







2014-11-05 18:58  
Старі машини / Used Cars (1980) 720p Ukr/Eng | Sub Eng



Оригінальні постери




Жанр: комедія
Країна: США



Кінокомпанія: Columbia Pictures Corporation, A-Team
Режисер: Роберт Земекіс / Robert Zemeckis
Актори: Курт Расел / Kurt Russell, Джек Ворден / Jack Warden, Ґерріт Ґрем / Gerrit Graham, Френк МакРей / Frank McRae, Джо Флагерті / Joe Flaherty, Девід Л. Лендер / David L. Lander та інші

Сюжет:
Продавець вживаних авто Руді Руссо, що працює в автосалоні старого Люка Фукса безсоромно переманює клієнтів у конкурента - Роя Фукса, брата Люка. Одного разу терпець Роя увірвався, і він вирішиє вмить позбутися від надокучливого сусідства і владнати своє фінансове становище.

Але й Руді, який мріє зайняти місце у сенаті штату, теж заклопотаний пошуком великої суми грошей для передвиборчої кампанії. Однак доля завдає йому руйнівного удару звідти, звідки він і чекати не міг...


Рейтинг MPAA: R - особам до 17 років обов'язкова присутність батьків або дорослого опікуна
Вікова категорія: 15+

Тривалість: 01:52:40
Якість: 720p [SbR]
Відео:
кодек:
розмір кадру: 1280 x 692
бітрейт: 11,2 Мбіт/с [crf=17.5]

Аудіо # 1: та
мова: українська
переклад: багатоголосий закадровий - Так Треба Продакшн на замовлення ICTV
ролі озвучили: Курт Раселл - Володимир Терещук, Джек Варден - Владислав Пупков, Інна Капінос? і Юрій Гребельник
кодек: 2.0
бітрейт: 192 кбіт/с

Аудіо # 2:
мова: англійська
переклад: оригінал
кодек: 5.1
бітрейт: 1509 кбіт/с

Субтитри:
мова: англійська
тип: програмні (м'які)
формат: *.srt

Збережено оригінальні розділи, як на Blu-ray.
MediaInfo
[code]General
Unique ID : 230605516643382082189651276268200165496 (0xAD7D01C9BB6C358CA466D71092CA8078)
Complete name : Used Cars (1980) [Ukr,Eng sub.Eng] 720p [Hurtom & HDClub].mkv
Format : Matroska
Format version : Version 4 / Version 2
File size : 10.4 GiB
Duration : 1h 52mn
Overall bit rate : 13.2 Mbps
Movie name : Старі машини / Used Cars (1980) [Ukr,Eng sub.Eng] 720p [Hurtom & HDClub]
Encoded date : UTC 2014-11-05 13:10:48
Writing application : mkvmerge v7.3.0 ('Nouages') 64bit built on Oct 22 2014 18:53:34
Writing library : libebml v1.3.0 + libmatroska v1.4.1
DURATION : 01:49:09.113000000
NUMBER_OF_FRAMES : 1073
NUMBER_OF_BYTES : 49763
_STATISTICS_WRITING_APP : mkvmerge v7.3.0 ('Nouages') 64bit built on Oct 22 2014 18:53:34
_STATISTICS_WRITING_DATE_UTC : 2014-11-05 13:10:48
_STATISTICS_TAGS : BPS DURATION NUMBER_OF_FRAMES NUMBER_OF_BYTES

Video
ID : 1
Format : AVC
Format/Info : Advanced Video Codec
Format profile : [email protected]
Format settings, CABAC : Yes
Format settings, ReFrames : 9 frames
Codec ID : V_MPEG4/ISO/AVC
Duration : 1h 52mn
Bit rate : 11.2 Mbps
Width : 1 280 pixels
Height : 692 pixels
Display aspect ratio : 1.85:1
Frame rate mode : Constant
Frame rate : 23.976 fps
Color space : YUV
Chroma subsampling : 4:2:0
Bit depth : 8 bits
Scan type : Progressive
Bits/(Pixel*Frame) : 0.528
Stream size : 8.82 GiB (85%)
Title : Старі машини / Used Cars / Подержанные автомобили (1980) 720p [SbR]
Writing library : core 142 r2431kMod ac76440
Encoding settings : cabac=1 / ref=9 / deblock=1:-3:-3 / analyse=0x3:0x133 / me=esa / subme=11 / psy=1 / fade_compensate=0.00 / psy_rd=0.85:0.00 / mixed_ref=1 / me_range=24 / chroma_me=1 / trellis=2 / 8x8dct=1 / cqm=0 / deadzone=21,11 / fast_pskip=0 / chroma_qp_offset=-2 / threads=6 / lookahead_threads=1 / sliced_threads=0 / nr=0 / decimate=1 / interlaced=0 / bluray_compat=0 / constrained_intra=0 / fgo=0 / bframes=12 / b_pyramid=2 / b_adapt=2 / b_bias=0 / direct=3 / weightb=1 / open_gop=0 / weightp=2 / keyint=250 / keyint_min=23 / scenecut=40 / intra_refresh=0 / rc_lookahead=60 / rc=crf / mbtree=0 / crf=17.5000 / qcomp=0.60 / qpmin=0 / qpmax=69 / qpstep=4 / vbv_maxrate=62500 / vbv_bufsize=78125 / crf_max=0.0 / nal_hrd=none / filler=0 / ip_ratio=1.30 / pb_ratio=1.20 / aq=1:0.80
Language : English
Default : Yes
Forced : No
Matrix coefficients : BT.709
DURATION : 01:52:40.796000000
NUMBER_OF_FRAMES : 162097
NUMBER_OF_BYTES : 9687643462
_STATISTICS_WRITING_APP : mkvmerge v7.3.0 ('Nouages') 64bit built on Oct 22 2014 18:53:34
_STATISTICS_WRITING_DATE_UTC : 2014-11-05 13:10:48
_STATISTICS_TAGS : BPS DURATION NUMBER_OF_FRAMES NUMBER_OF_BYTES

Audio #1
ID : 2
Format : AC-3
Format/Info : Audio Coding 3
Mode extension : CM (complete main)
Format settings, Endianness : Big
Codec ID : A_AC3
Duration : 1h 52mn
Bit rate mode : Constant
Bit rate : 224 Kbps
Channel(s) : 2 channels
Channel positions : Front: L R
Sampling rate : 48.0 KHz
Bit depth : 16 bits
Compression mode : Lossy
Stream size : 181 MiB (2%)
Title : MVO [K1/Inter-TakTrebaProduction] 2.0 192 kbps [Hurtom-rooster,Romario_O]
Language : Ukrainian
Default : Yes
Forced : No

Audio #2
ID : 3
Format :
Format/Info : Digital Theater Systems
Mode : 16
Format settings, Endianness : Big
Codec ID : A_DTS
Duration : 1h 52mn
Bit rate mode : Constant
Bit rate : 1 509 Kbps
Channel(s) : 6 channels
Channel positions : Front: L C R, Side: L R, LFE
Sampling rate : 48.0 KHz
Bit depth : 24 bits
Compression mode : Lossy
Stream size : 1.19 GiB (11%)
Title : Original 5.1 1509 kbps
Language : English
Default : No
Forced : No

Text
ID : 4
Format : UTF-8
Codec ID : S_TEXT/UTF8
Codec ID/Info : UTF-8 Plain Text
Language : English
Default : No
Forced : No

Menu
00:00:00.000 : en:00:00:00.000
00:05:00.000 : en:00:05:00.000
00:10:00.000 : en:00:10:00.000
00:15:00.000 : en:00:15:00.000
00:20:00.000 : en:00:20:00.000
00:25:00.000 : en:00:25:00.000
00:30:00.000 : en:00:30:00.000
00:35:00.000 : en:00:35:00.000
00:40:00.000 : en:00:40:00.000
00:45:00.000 : en:00:45:00.000
00:50:00.000 : en:00:50:00.000
00:55:00.000 : en:00:55:00.000
01:00:00.000 : en:01:00:00.000
01:05:00.000 : en:01:05:00.000
01:10:00.000 : en:01:10:00.000
01:15:00.000 : en:01:15:00.000
01:20:00.000 : en:01:20:00.000
01:25:00.000 : en:01:25:00.000
01:30:00.000 : en:01:30:00.000
01:35:00.000 : en:01:35:00.000
01:40:00.000 : en:01:40:00.000
01:45:00.000 : en:01:45:00.000
01:50:00.000 : en:01:50:00.000




Джерела та подяки: &
ріп відео, оригінальні звук та субтитри - SbR (HDbits), delia (HDClub); українська доріжка - rooster - зведення, Romario_O - запис з ТБ; українізований постер - thefir; фільмографії акторів та інформація про озвучення - Віктор (всі - Гуртом).


ЗАЛИШАЙТЕСЬ ЯКОМОГА ДОВШЕ НА РОЗДАЧІ!

СКАЧАВ САМ - ДАЙ СКАЧАТИ ІНШИМ


Срібний реліз (на рейтинг впливає 50% завантаженого)
 Трекер:    Зареєстрований   

Завантажити / скачати фільм українською



відео для новачків



 Зареєстрований:   2014-11-05 18:58
 Розмір:   10.39 GB 
 Оцінка фільму:   4.4/10 (Голосів: 16)
   
Інші релізи
   Старі машини / Used Cars (1980) | [480 x 260] Skillters  1 / 1   543 MB   2015-10-28 18:02 
   Старі машини / Used Cars (1980) patriot2305  4 / 0   1.65 GB   2014-05-04 11:58 
alexcaptain 
Свій


З нами з: 20.03.14
Востаннє: 09.12.16
Повідомлень: 74

2014-11-06 08:51  
Хороший фільм
Ваш часовий пояс: GMT + 2 Години

Нова тема   Відповісти