Завантажити та скачати торренти українською


Змія і райдуга / The Serpent and the Rainbow (1988)

Нові коментарі

Нова тема   Відповісти
Автор Повідомлення
Anonymous 







2014-11-05 00:02  
Змія і райдуга / The Serpent and the Rainbow (1988)



Оригінальний постер



Жанр: жахи, фентезі, трилер, детектив
Країна: США



Кінокомпанія: Universal Pictures
Режисер: Вес Крейвен / Wes Craven
Актори: Білл Пуллман / Bill Pullman, Кеті Тайсон / Cathy Tyson, Закес Мокан / Zakes Mokae, Пол Уінфілд / Paul Winfield, Брент Дженнінгс / Brent Jennings, Конрад Робертс / Conrad Roberts, Баджа Джола / Badja Djola, Тереза Мерріт / Theresa Merritt, Майкл Гоф / Michael Gough, Пол Гілфойл / Paul Guilfoyle, Дей Янг / Dey Young, Френсіс Гуінан / Francis Guinan, Діаманда Галас / Diamanda Galás, Аліта Мітчелл / Aleta Mitchell, Уільям Ньюман / William Newman, Джейм Піна Готьє / Jaime Pina Gautier, Кімбірлі Аарне / Kimberleigh Aarn, Роберт Де Джеймс / Robert De James, Джексон Делгадо / Jackson Delgado, Барбара Гійом / Barbara Guillaume, Бетті Гарсія Родрігез / Betty García Rodríguez, Клаудія Піментел / Claudia Pimentel, Майкл Джексон / Michael Jackson та інші

Сюжет:
Ця картина заснована на реальних подіях, що сталися з ученим Вейдом Дейвісом. Денніс Алан, антрополог з Гарвардського Університету, вирушає на батьківщину чорної магії Вуду - острів Гаїті, щоб знайти місце виготовлення дивного порошку.

Місцева легенда свідчить, що порошок цей здатний повертати до життя мерців. На острові Алану доведеться зіткнутися зі страшною наукою, історія якої сягає глибини століть, наукою, що перевертає всі людські уявлення про життя і смерть.


Рейтинг MPAA: R - особам до 17 років обов'язкова присутність батьків або дорослого опікуна
Вікова категорія: 16+

Тривалість: 01:38:00
Якість:
Відео:
кодек: build 65
розмір кадру: 704x384
бітрейт: 1920 кбіт/с

Аудіо # 1:
мова: українська
переклад: двоголосий закадровий
кодек: 2.0
бітрейт: 192 кбіт/с

Аудіо # 2: (окремо)
мова: англійська (завантажити)
переклад: оригінал
кодек: 2.0
бітрейт: 192 кбіт/с

Субтитри: (окремо)
мова: англійська (завантажити - повні, SDH, SDH-Colored)
тип: програмні (м'які)
формат: *.srt
MediaInfo
Код:
General
Complete name                            : The Serpent and the Rainbow (1988) [Hurtom & HQClub].avi
Format                                   : AVI
Format/Info                              : Audio Video Interleave
File size                                : 1.45 GiB
Duration                                 : 1h 38mn
Overall bit rate                         : 2 121 Kbps
Movie name                               : Змія і райдуга / The Serpent and the Rainbow / Змей и радуга (1988)
Director                                 : yaroslaigor, urij546724, igor911
Genre                                    : жахи, фентезі, трилер, детектив
Writing application                      : VirtualDubModRus 1.5.10.2 (build 2540/release) VirtualDubMod build 2540/release
Copyright                                : Hurtom & HQClub
Comment                                  : 04.11.2014

Video
ID                                       : 0
Format                                   : MPEG-4 Visual
Format profile                           : Advanced [email protected]
Format settings, BVOP                    : 1
Format settings, QPel                    : No
Format settings, GMC                     : No warppoints
Format settings, Matrix                  : Custom
Codec ID                                 :
Codec ID/Hint                            :
Duration                                 : 1h 38mn
Bit rate                                 : 1 920 Kbps
Width                                    : 704 pixels
Height                                   : 384 pixels
Display aspect ratio                     : 1.85:1
Frame rate                               : 23.976 fps
Color space                              : YUV
Chroma subsampling                       : 4:2:0
Bit depth                                : 8 bits
Scan type                                : Progressive
Compression mode                         : Lossy
Bits/(Pixel*Frame)                       : 0.296
Stream size                              : 1.31 GiB (90%)
Writing library                          : 65

Audio
ID                                       : 1
Format                                   : AC-3
Format/Info                              : Audio Coding 3
Mode extension                           : CM (complete main)
Format settings, Endianness              : Big
Codec ID                                 : 2000
Duration                                 : 1h 38mn
Bit rate mode                            : Constant
Bit rate                                 : 192 Kbps
Channel(s)                               : 2 channels
Channel positions                        : Front: L R
Sampling rate                            : 48.0 KHz
Bit depth                                : 16 bits
Compression mode                         : Lossy
Stream size                              : 135 MiB (9%)
Alignment                                : Split accross interleaves
Interleave, duration                     : 42 ms (1.00 video frame)
Interleave, preload duration             : 500 ms
Title                                    : DVO ICTV [Hurtom-urij546724]
Language                                 : Undefined




Джерела та подяки: &
ріп відео, оригінальні звук та субтитри - yaroslaigor (HQClub); українська доріжка - urij546724 - зведення, Merdiff - запис з ТБ; українізований постер - thefir (всі - Гуртом).


ЗАЛИШАЙТЕСЬ ЯКОМОГА ДОВШЕ НА РОЗДАЧІ!

СКАЧАВ САМ - ДАЙ СКАЧАТИ ІНШИМ


Срібний реліз (на рейтинг впливає 50% завантаженого)
 Трекер:    Зареєстрований   

Завантажити / скачати фільм українською



відео для новачків



 Зареєстрований:   2014-11-05 00:02
 Розмір:   1.45 GB 
 Оцінка фільму:   3.7/10 (Голосів: 15)
   
Інші релізи
Highlander007 
Частий відвідувач


З нами з: 22.07.13
Востаннє: 05.12.16
Повідомлень: 26

2014-11-14 21:23  
Моторошний фільм, дивитися було цікаво. Та явно далеко не всім сподобається, хоч і розповідає про те, що дійсно схоже на правду, принаймі похоронених заживо.
Ваш часовий пояс: GMT + 2 Години

Нова тема   Відповісти