Завантажити та скачати торренти українською


Змія і райдуга / The Serpent and the Rainbow (1988) 720p Ukr/Eng | Sub Eng/Ger

Нові коментарі

Нова тема   Відповісти
Автор Повідомлення
Anonymous 







2014-11-04 23:43  
Змія і райдуга / The Serpent and the Rainbow (1988) 720p Ukr/Eng | Sub Eng/Ger



Оригінальний постер



Жанр: жахи, фентезі, трилер, детектив
Країна: США



Кінокомпанія: Universal Pictures
Режисер: Вес Крейвен / Wes Craven
Актори: Білл Пуллман / Bill Pullman, Кеті Тайсон / Cathy Tyson, Закес Мокан / Zakes Mokae, Пол Уінфілд / Paul Winfield, Брент Дженнінгс / Brent Jennings, Конрад Робертс / Conrad Roberts, Баджа Джола / Badja Djola, Тереза Мерріт / Theresa Merritt, Майкл Гоф / Michael Gough, Пол Гілфойл / Paul Guilfoyle, Дей Янг / Dey Young, Френсіс Гуінан / Francis Guinan, Діаманда Галас / Diamanda Galás, Аліта Мітчелл / Aleta Mitchell, Уільям Ньюман / William Newman, Джейм Піна Готьє / Jaime Pina Gautier, Кімбірлі Аарне / Kimberleigh Aarn, Роберт Де Джеймс / Robert De James, Джексон Делгадо / Jackson Delgado, Барбара Гійом / Barbara Guillaume, Бетті Гарсія Родрігез / Betty García Rodríguez, Клаудія Піментел / Claudia Pimentel, Майкл Джексон / Michael Jackson та інші

Сюжет:
Ця картина заснована на реальних подіях, що сталися з ученим Вейдом Дейвісом. Денніс Алан, антрополог з Гарвардського Університету, вирушає на батьківщину чорної магії Вуду - острів Гаїті, щоб знайти місце виготовлення дивного порошку.

Місцева легенда свідчить, що порошок цей здатний повертати до життя мерців. На острові Алану доведеться зіткнутися зі страшною наукою, історія якої сягає глибини століть, наукою, що перевертає всі людські уявлення про життя і смерть.


Рейтинг MPAA: R - особам до 17 років обов'язкова присутність батьків або дорослого опікуна
Вікова категорія: 16+

Тривалість: 01:38:00
Якість: 720p [SbR]
Відео:
кодек:
розмір кадру: 1280x694
бітрейт: 9980 кбіт/с [crf=16.25]

Аудіо # 1:
мова: українська
переклад: двоголосий закадровий
кодек: 2.0
бітрейт: 192 кбіт/с

Аудіо # 2:
мова: англійська
переклад: оригінал
кодек: 5.1
бітрейт: 1509 кбіт/с

Субтитри #1:
мова: англійська
тип: програмні (м'які)
формат: *.srt

Субтитри #2:
мова: німецька
тип: програмні (м'які)
формат: *.srt

Збережено оригінальні розділи, як на Blu-ray.
MediaInfo
Код:
General
Unique ID                                : 179820241820817578352278217543623267595 (0x87481E6BD65972F3AE54905CC1B2550B)
Complete name                            : The Serpent and the Rainbow (1988) [Ukr,Eng sub.Eng,Ger] 720p [Hurtom & HDClub].mkv
Format                                   : Matroska
Format version                           : Version 4 / Version 2
File size                                : 8.16 GiB
Duration                                 : 1h 38mn
Overall bit rate                         : 11.9 Mbps
Movie name                               : Змія і райдуга / The Serpent and the Rainbow (1988) 720p [Hurtom & HDClub]
Encoded date                             : UTC 2014-11-04 21:10:10
Writing application                      : mkvmerge v7.3.0 ('Nouages') 64bit built on Oct 22 2014 18:53:34
Writing library                          : libebml v1.3.0 + libmatroska v1.4.1
DURATION                                 : 01:33:25.058000000
NUMBER_OF_FRAMES                         : 713
NUMBER_OF_BYTES                          : 29833
_STATISTICS_WRITING_APP                  : mkvmerge v7.3.0 ('Nouages') 64bit built on Oct 22 2014 18:53:34
_STATISTICS_WRITING_DATE_UTC             : 2014-11-04 21:10:10
_STATISTICS_TAGS                         : BPS DURATION NUMBER_OF_FRAMES NUMBER_OF_BYTES

Video
ID                                       : 1
Format                                   : AVC
Format/Info                              : Advanced Video Codec
Format profile                           : [email protected]
Format settings, CABAC                   : Yes
Format settings, ReFrames                : 9 frames
Codec ID                                 : V_MPEG4/ISO/AVC
Duration                                 : 1h 38mn
Bit rate                                 : 9 980 Kbps
Width                                    : 1 280 pixels
Height                                   : 694 pixels
Display aspect ratio                     : 1.85:1
Frame rate mode                          : Constant
Frame rate                               : 23.976 fps
Color space                              : YUV
Chroma subsampling                       : 4:2:0
Bit depth                                : 8 bits
Scan type                                : Progressive
Bits/(Pixel*Frame)                       : 0.469
Stream size                              : 6.84 GiB (84%)
Title                                    : Змія і райдуга / The Serpent and the Rainbow / Змей и радуга (1988) 720p [SbR]
Writing library                          : core 142 r2431kMod ac76440
Encoding settings                        : cabac=1 / ref=9 / deblock=1:-3:-3 / analyse=0x3:0x133 / me=esa / subme=11 / psy=1 / fade_compensate=0.00 / psy_rd=1.15:0.05 / mixed_ref=1 / me_range=24 / chroma_me=1 / trellis=2 / 8x8dct=1 / cqm=0 / deadzone=21,11 / fast_pskip=0 / chroma_qp_offset=-3 / threads=6 / lookahead_threads=1 / sliced_threads=0 / nr=0 / decimate=1 / interlaced=0 / bluray_compat=0 / constrained_intra=0 / fgo=0 / bframes=12 / b_pyramid=2 / b_adapt=2 / b_bias=0 / direct=3 / weightb=1 / open_gop=0 / weightp=2 / keyint=250 / keyint_min=23 / scenecut=40 / intra_refresh=0 / rc_lookahead=60 / rc=crf / mbtree=0 / crf=16.2500 / qcomp=0.70 / qpmin=0 / qpmax=69 / qpstep=4 / vbv_maxrate=62500 / vbv_bufsize=78125 / crf_max=0.0 / nal_hrd=none / filler=0 / ip_ratio=1.35 / pb_ratio=1.25 / aq=1:0.80
Language                                 : English
Default                                  : Yes
Forced                                   : No
Matrix coefficients                      : BT.709
DURATION                                 : 01:38:00.917000000
NUMBER_OF_FRAMES                         : 141001
NUMBER_OF_BYTES                          : 7511868474
_STATISTICS_WRITING_APP                  : mkvmerge v7.3.0 ('Nouages') 64bit built on Oct 22 2014 18:53:34
_STATISTICS_WRITING_DATE_UTC             : 2014-11-04 21:10:10
_STATISTICS_TAGS                         : BPS DURATION NUMBER_OF_FRAMES NUMBER_OF_BYTES

Audio #1
ID                                       : 2
Format                                   : AC-3
Format/Info                              : Audio Coding 3
Mode extension                           : CM (complete main)
Format settings, Endianness              : Big
Codec ID                                 : A_AC3
Duration                                 : 1h 38mn
Bit rate mode                            : Constant
Bit rate                                 : 192 Kbps
Channel(s)                               : 2 channels
Channel positions                        : Front: L R
Sampling rate                            : 48.0 KHz
Bit depth                                : 16 bits
Compression mode                         : Lossy
Stream size                              : 135 MiB (2%)
Title                                    : DVO [ICTV] 2.0 192 kbps [Hurtom-urij546724]
Language                                 : Ukrainian
Default                                  : Yes
Forced                                   : No

Audio #2
ID                                       : 3
Format                                   :
Format/Info                              : Digital Theater Systems
Mode                                     : 16
Format settings, Endianness              : Big
Codec ID                                 : A_DTS
Duration                                 : 1h 38mn
Bit rate mode                            : Constant
Bit rate                                 : 1 509 Kbps
Channel(s)                               : 2 channels
Channel positions                        : Front: L R
Sampling rate                            : 48.0 KHz
Bit depth                                : 16 bits
Compression mode                         : Lossy
Stream size                              : 1.03 GiB (13%)
Title                                    : Original 5.1 1509 kbps
Language                                 : English
Default                                  : No
Forced                                   : No

Text #1
ID                                       : 4
Format                                   : UTF-8
Codec ID                                 : S_TEXT/UTF8
Codec ID/Info                            : UTF-8 Plain Text
Language                                 : English
Default                                  : No
Forced                                   : No

Text #2
ID                                       : 5
Format                                   : UTF-8
Codec ID                                 : S_TEXT/UTF8
Codec ID/Info                            : UTF-8 Plain Text
Language                                 : German
Default                                  : No
Forced                                   : No

Menu
00:00:00.000                             : en:00:00:00.000
00:05:13.146                             : en:00:05:13.146
00:11:41.325                             : en:00:11:41.325
00:21:54.604                             : en:00:21:54.604
00:27:52.754                             : en:00:27:52.754
00:35:22.537                             : en:00:35:22.537
00:42:36.887                             : en:00:42:36.887
00:46:36.168                             : en:00:46:36.168
00:52:05.872                             : en:00:52:05.872
01:00:01.973                             : en:01:00:01.973
01:07:01.434                             : en:01:07:01.434
01:12:20.878                             : en:01:12:20.878
01:17:14.838                             : en:01:17:14.838
01:21:57.287                             : en:01:21:57.287
01:27:33.373                             : en:01:27:33.373
01:33:47.246                             : en:01:33:47.246




Джерела та подяки: &
ріп відео, оригінальні звук та субтитри - SbR (HDbits), delia (HDClub); українська доріжка - urij546724 - зведення, Merdiff - запис з ТБ; українізований постер - thefir (всі - Гуртом).


ЗАЛИШАЙТЕСЬ ЯКОМОГА ДОВШЕ НА РОЗДАЧІ!

СКАЧАВ САМ - ДАЙ СКАЧАТИ ІНШИМ


Срібний реліз (на рейтинг впливає 50% завантаженого)
 Трекер:    Зареєстрований   

Завантажити / скачати фільм українською



відео для новачків



 Зареєстрований:   2014-11-04 23:43
 Розмір:   8.16 GB 
 Оцінка фільму:   2.5/10 (Голосів: 12)
   
Інші релізи
   Змія і райдуга / The Serpent and the Rainbow (1988) igor911  2 / 0   1.45 GB   2014-11-05 00:02 
Ваш часовий пояс: GMT + 2 Години

Нова тема   Відповісти