Завантажити та скачати торренти українською


Сахара / Sahara (2005) 720p 2xUkr/Eng | Sub Eng

Нові коментарі

Нова тема   Відповісти
Автор Повідомлення
Anonymous 







2014-11-04 19:53  
Сахара / Sahara (2005) 720p 2xUkr/Eng | Sub Eng



Альтернативний постер



Жанр: бойовик, трилер, комедія, пригодницький, військовий
Країна: Велика Британія, Іспанія, Німеччина, США



Кінокомпанія: Paramount Pictures, Bristol Bay Productions, Baldwin Entertainment Group, J.K. Livin Productions, Desertlands Entertainment, Kanzaman, Babelsberg Film, Moguletta, Sahara Productions, Mace Neufeld Productions
Режисер: Брек Ейснер / Breck Eisner
Актори: Метью МакКонаґі / Matthew McConaughey, Стів Зан / Steve Zahn, Пенелопа Круз / Penelope Cruz, Вільям Х. Мейсі / William H. Macy, Рейн Уілсон / Rainn Wilson, Делрой Ліндо / Delroy Lindo, Ламберт Bілсон / Lambert Wilson, Ленні Джеймс / Lennie James, Роберт Каванах / Robert Cavanah, Джуд Акувудіке / Jude Akuwudike, Марк Аспіналл / Mark Aspinall, Ракі Айола / Rakie Ayola, Крістофер Белло / Christopher Bello, Ніколас Бевені / Nicholas Beveney, Емпото Босаж / Empotoe Bosage

Сюжет:
1996 рік, Єгипет. Шукач пригод і фахівець Національного підводного морського агентства Дірк Пітт (Метью МакКонаґі), подорожуючи по Нілу, запобігає вбивству симпатичного експерта ООН, медика за професією. Ця посланниця міжнародної організації намагається знайти причину загадкової епідемії, що приводить до того, що тисячі жителів Північної Африки стають божевільними, впадають у канібалізм і вмирають. В історію виявляється вплутаним один мільярдер, якому протистоїть кривавий західно-африканський тиран. Розвиток сюжету приводить Дірка до занедбаної золотоносної шахти в Сахарі, де до знемоги трудяться раби. Там зненацька відкриваються дві більші історичні загадки: змова з метою вбивства Авраама Лінкольна та зникнення знаменитої льотчиці 30-х років XX століття...


Рейтинг MPAA: PG-13 - дітям до 13 років перегляд не бажаний
Вікова категорія: 12+

Тривалість: 02:04:03
Якість: 720p [SbR]
Відео:
кодек:
розмір кадру: 1280 х 532
бітрейт: 5357 кбіт/с [crf=17]

Аудіо # 1:
мова: українська
переклад: двоголосий закадровий - Студія 1+1
кодек: 2.0
бітрейт: 192 кбіт/с
Інформація про озвучення
Переклад: Лідія Громовенко
Літературний редактор: Олена Ковалевська
Звукорежисер: Віктор Коляда
Режисер: Станіслав Чернілевський
Ролі озвучили: Тетяна Антонова і Олександр Завальський

Фільм перекладено і озвучено на Студії 1+1
Аудіо # 2:
мова: українська
переклад: багатоголосий закадровий - Так Треба Продакшн
кодек: 2.0
бітрейт: 192 кбіт/с
Інформація про озвучення
Ролі озвучили: Метью МакКонаґі — Ярослав Чорненький, Стів Зан — Юрій Ребрик, Вільям Мейсі — Олег Стальчук, Анатолій Пашнін і один чи два жіночих голоси

Фільм перекладено і озвучено на студії Так Треба Продакшн на замовлення телекомпанії ICTV
Аудіо # 3:
мова: англійська
переклад: оригінал
кодек: 5.1
бітрейт: 1509 кбіт/с

Субтитри:
мова: англійська
тип: програмні (м'які)
формат: *.srt

Збережено оригінальні розділи, як на Blu-ray.
MediaInfo та log
Код:
General
Unique ID                                : 223412830334924594810971591978409690743 (0xA813BEF9374891C49A0F7CFB31628677)
Complete name                            : Sahara (2005) [2xUkr,Eng sub.Eng] 720p [Hurtom & HDClub].mkv
Format                                   : Matroska
Format version                           : Version 4 / Version 2
File size                                : 6.41 GiB
Duration                                 : 2h 4mn
Overall bit rate                         : 7 397 Kbps
Movie name                               : Сахара / Sahara (2005) 2xUkr,Eng 720p [Hurtom & HDClub]
Encoded date                             : UTC 2014-11-04 16:45:06
Writing application                      : mkvmerge v7.3.0 ('Nouages') 64bit built on Oct 22 2014 18:53:34
Writing library                          : libebml v1.3.0 + libmatroska v1.4.1
DURATION                                 : 01:56:25.637000000
NUMBER_OF_FRAMES                         : 1204
NUMBER_OF_BYTES                          : 42425
_STATISTICS_WRITING_APP                  : mkvmerge v7.3.0 ('Nouages') 64bit built on Oct 22 2014 18:53:34
_STATISTICS_WRITING_DATE_UTC             : 2014-11-04 16:45:06
_STATISTICS_TAGS                         : BPS DURATION NUMBER_OF_FRAMES NUMBER_OF_BYTES

Video
ID                                       : 1
Format                                   : AVC
Format/Info                              : Advanced Video Codec
Format profile                           : [email protected]
Format settings, CABAC                   : Yes
Format settings, ReFrames                : 12 frames
Codec ID                                 : V_MPEG4/ISO/AVC
Duration                                 : 2h 4mn
Bit rate                                 : 5 357 Kbps
Width                                    : 1 280 pixels
Height                                   : 532 pixels
Display aspect ratio                     : 2.40:1
Frame rate mode                          : Constant
Frame rate                               : 23.976 fps
Color space                              : YUV
Chroma subsampling                       : 4:2:0
Bit depth                                : 8 bits
Scan type                                : Progressive
Bits/(Pixel*Frame)                       : 0.328
Stream size                              : 4.64 GiB (72%)
Title                                    : Сахара / Sahara (2005) 720p [SbR]
Writing library                          : core 133 r2334kMod a3ac64b
Encoding settings                        : cabac=1 / ref=12 / deblock=1:-2:-2 / analyse=0x3:0x113 / me=umh / subme=11 / psy=1 / fade_compensate=0.00 / psy_rd=1.00:0.00 / mixed_ref=1 / me_range=48 / chroma_me=1 / trellis=2 / 8x8dct=1 / cqm=0 / deadzone=21,11 / fast_pskip=1 / chroma_qp_offset=-2 / threads=12 / lookahead_threads=2 / sliced_threads=0 / nr=0 / decimate=1 / interlaced=0 / bluray_compat=0 / constrained_intra=0 / bframes=8 / b_pyramid=2 / b_adapt=2 / b_bias=0 / direct=3 / weightb=1 / open_gop=0 / weightp=2 / keyint=250 / keyint_min=23 / scenecut=40 / intra_refresh=0 / rc_lookahead=40 / rc=crf / mbtree=0 / crf=17.0000 / qcomp=0.60 / qpmin=0 / qpmax=69 / qpstep=4 / vbv_maxrate=62500 / vbv_bufsize=78125 / crf_max=0.0 / nal_hrd=none / ip_ratio=1.40 / pb_ratio=1.30 / aq=1:0.80
Language                                 : English
Default                                  : Yes
Forced                                   : No
Color primaries                          : BT.709
Transfer characteristics                 : BT.709
Matrix coefficients                      : BT.709

Audio #1
ID                                       : 2
Format                                   : AC-3
Format/Info                              : Audio Coding 3
Mode extension                           : CM (complete main)
Format settings, Endianness              : Big
Codec ID                                 : A_AC3
Duration                                 : 2h 4mn
Bit rate mode                            : Constant
Bit rate                                 : 192 Kbps
Channel(s)                               : 2 channels
Channel positions                        : Front: L R
Sampling rate                            : 48.0 KHz
Bit depth                                : 16 bits
Compression mode                         : Lossy
Stream size                              : 170 MiB (3%)
Title                                    : DVO [1+1] 2.0 192 kbps [Hurtom-karvai0]
Language                                 : Ukrainian
Default                                  : Yes
Forced                                   : No

Audio #2
ID                                       : 3
Format                                   : AC-3
Format/Info                              : Audio Coding 3
Mode extension                           : CM (complete main)
Format settings, Endianness              : Big
Codec ID                                 : A_AC3
Duration                                 : 2h 4mn
Bit rate mode                            : Constant
Bit rate                                 : 192 Kbps
Channel(s)                               : 2 channels
Channel positions                        : Front: L R
Sampling rate                            : 48.0 KHz
Bit depth                                : 16 bits
Compression mode                         : Lossy
Stream size                              : 170 MiB (3%)
Title                                    : MVO [ICTV-TakTrebaProduction] 2.0 192 kbps [hurtom-karvai0]
Language                                 : Ukrainian
Default                                  : No
Forced                                   : No

Audio #3
ID                                       : 4
Format                                   :
Format/Info                              : Digital Theater Systems
Mode                                     : 16
Format settings, Endianness              : Big
Codec ID                                 : A_DTS
Duration                                 : 2h 4mn
Bit rate mode                            : Constant
Bit rate                                 : 1 509 Kbps
Channel(s)                               : 6 channels
Channel positions                        : Front: L C R, Side: L R, LFE
Sampling rate                            : 48.0 KHz
Bit depth                                : 24 bits
Compression mode                         : Lossy
Stream size                              : 1.31 GiB (20%)
Title                                    : Original 5.1 1509 kbps
Language                                 : English
Default                                  : No
Forced                                   : No

Text
ID                                       : 5
Format                                   : UTF-8
Codec ID                                 : S_TEXT/UTF8
Codec ID/Info                            : UTF-8 Plain Text
Language                                 : English
Default                                  : No
Forced                                   : No

Menu
00:00:00.000                             : en:Chapter 1
00:06:40.602                             : en:Chapter 2
00:11:57.920                             : en:Chapter 3
00:21:48.969                             : en:Chapter 4
00:27:55.335                             : en:Chapter 5
00:38:05.361                             : en:Chapter 6
00:50:12.463                             : en:Chapter 7
00:59:41.238                             : en:Chapter 8
01:05:46.854                             : en:Chapter 9
01:11:36.704                             : en:Chapter 10
01:17:00.402                             : en:Chapter 11
01:23:54.064                             : en:Chapter 12
01:32:45.304                             : en:Chapter 13
01:41:49.098                             : en:Chapter 14
01:45:48.086                             : en:Chapter 15
01:54:19.973                             : en:Chapter 16


Код:
1280x532p 1:1 @ 24000/1001 fps (cfr)
[info]: using SAR=1/1
[info]: using cpu capabilities: MMX2 SSE2Fast SSSE3 SSE4.2 AVX
[info]: profile High, level 4.1
[info]: frame I:1857  Avg QP:[b]17.15[/b]  size: 97407
[info]: frame P:39486 Avg QP:[b]18.51[/b]  size: 50682
[info]: frame B:137121 Avg QP:[b]20.75[/b]  size: 21416
[info]: consecutive B-frames:  2.6%  3.4%  7.6% 19.6% 17.3% 41.2%  5.6%  1.2%  1.4%
[info]: mb I  I16..4:  3.7% 82.7% 13.5%
[info]: mb P  I16..4:  0.5% 21.6%  2.5%  P16..4: 24.9% 33.1% 12.7%  0.0%  0.0%    skip: 4.6%
[info]: mb B  I16..4:  0.1%  2.6%  0.5%  B16..8: 35.5% 25.3%  5.4%  direct: 8.9%  skip:21.8%  L0:41.4% L1:41.5% BI:17.2%
[info]: 8x8 transform intra:85.6% inter:60.1%
[info]: direct mvs  spatial:99.9% temporal:0.1%
[info]: coded y,uvDC,uvAC intra: 93.0% 81.2% 50.0% inter: 47.4% 25.9% 1.8%
[info]: i16 v,h,dc,p: 47% 15%  6% 33%
[info]: i8 v,h,dc,ddl,ddr,vr,hd,vl,hu:  9%  9%  7% 10% 14% 12% 14% 11% 14%
[info]: i4 v,h,dc,ddl,ddr,vr,hd,vl,hu: 36%  6%  5%  6% 11% 10% 10%  7%  9%
[info]: i8c dc,h,v,p: 31% 35% 18% 16%
[info]: Weighted P-Frames: Y:4.9% UV:2.7%
[info]: ref P L0: 43.0% 12.6% 18.0%  6.3%  5.5%  3.7%  3.3%  1.8%  1.7%  1.4%  1.4%  1.2%  0.2%  0.0%
[info]: ref B L0: 74.0% 11.4%  5.1%  2.7%  2.0%  1.5%  1.3%  0.8%  0.7%  0.4%  0.2%
[info]: ref B L1: 93.3%  6.7%
[info]: kb/s:5501.43

encoded 178464 frames, 7.70 fps, 5501.43 kb/s, duration 6:26:29




Джерела та подяки: &
ріп відео, оригінальні звук та субтитри - SbR (він же Skazhutin) (HDClub); українські доріжки - karvai0 - зведення, xslim (1), dvorsky (2) - запис з ТБ; українізовані постери - karvai0, WriterMix; фільмографії акторів та інформація про озвучення - Віктор (всі - Гуртом).


ЗАЛИШАЙТЕСЬ ЯКОМОГА ДОВШЕ НА РОЗДАЧІ!

СКАЧАВ САМ - ДАЙ СКАЧАТИ ІНШИМ


 Трекер:    Зареєстрований   

Завантажити / скачати фільм українською



відео для новачків



 Зареєстрований:   2014-11-04 19:53
 Розмір:   6.41 GB 
 Оцінка фільму:   5.6/10 (Голосів: 22)
   
Інші релізи
   Сахара / Sahara (2005) 2xUkr | Sub Eng karvai0  3 / 0   2.14 GB   2012-04-07 10:33 
Ваш часовий пояс: GMT + 2 Години

Нова тема   Відповісти