Завантажити та скачати торренти українською


Франкенштейн Мері Шелі / Mary Shelley's Frankenstein / Frankenstein (1994) AVC Ukr/Eng | Sub Eng

Нові коментарі

Нова тема   Відповісти
Автор Повідомлення
symba61 
Забанено
Забанено


З нами з: 01.03.10
Востаннє: 18.11.14
Повідомлень: 153

2014-11-02 15:15  
Франкенштейн Мері Шелі / Mary Shelley's Frankenstein / Frankenstein (1994) AVC Ukr/Eng | Sub Eng

Франкенштейн Мері Шелі / Mary Shelley's Frankenstein / Frankenstein (1994) AVC Ukr/Eng | Sub Eng


Жанр: Драма, жахи
Країна: США, Японія



Кінокомпанія: TriStar Pictures, Japan Satellite Broadcasting (JBS), IndieProd Company Productions
Режисер: Патрік Дойл (Patrick Doyle)
Актори: Роберт Де Ніро (Robert De Niro), Кенет Брана (Kenneth Branagh), Том Гальс (Tom Hulce), Гелена Бонем Картер (Helena Bonham Carter), Айден Квін (Aidan Quinn), Єн Гольм (Ian Holm), Річард Браєрс (Richard Briers), Джон Кліс (John Cleese)

Сюжет:
Віктор Франкенштайн не божевільний, він просто схиблений... схиблений ідеєю. Через свого друга Генрі він знайомиться з підозрілим професором Вальдманом. Відтоді він займається лише одним: ідеєю створення штучної людини. І однієї ночі експеримент вдається. Франкенштайн будить своє створіння. Та коли останньої миті він усвідомлює усе божевілля свого вчинку, стає вже запізно. Цей жах вже не спинити...
Характеристики
Тривалість: 02:03:10
Якість:
Відео:
кодек:
розмір кадру: 720 х 384
бітрейт: ~ 1600 кб/с

Аудіо # 1:
мова: українська
переклад: багатоголосий закадровий
кодек: 5.1
бітрейт: 448 кб/с

Аудіо # 2:
мова: англійська
переклад: оригінал
кодек: 5.1
бітрейт: 448 кб/с

Джерело озвучення:


Субтитри:
мова: англійська
тип: програмні (м'які)
формат: *.srt
MediaInfo
Код:
General
Unique ID                                : 210743348316205746880531482138827572613 (0x9E8BB1485A3B24A497AC2567EC484585)
Complete name                            : D:\Video\Frankenstein (1994) [Ukr+Eng] AVC.mkv
Format                                   : Matroska
Format version                           : Version 4 / Version 2
File size                                : 2.14 GiB
Duration                                 : 2h 3mn
Overall bit rate                         : 2 485 Kbps
Encoded date                             : UTC 2014-11-02 11:52:34
Writing application                      : mkvmerge v7.0.0 ('Where We Going') 64bit built on Jun  9 2014 15:16:27
Writing library                          : libebml v1.3.0 + libmatroska v1.4.1
DURATION                                 : 01:56:54.029000000
NUMBER_OF_FRAMES                         : 764
NUMBER_OF_BYTES                          : 26981
_STATISTICS_WRITING_APP                  : mkvmerge v7.0.0 ('Where We Going') 64bit built on Jun  9 2014 15:16:27
_STATISTICS_WRITING_DATE_UTC             : 2014-11-02 11:52:34
_STATISTICS_TAGS                         : BPS DURATION NUMBER_OF_FRAMES NUMBER_OF_BYTES

Video
ID                                       : 1
Format                                   : AVC
Format/Info                              : Advanced Video Codec
Format profile                           : [email protected]
Format settings, CABAC                   : Yes
Format settings, ReFrames                : 6 frames
Codec ID                                 : V_MPEG4/ISO/AVC
Duration                                 : 2h 3mn
Bit rate                                 : 1 587 Kbps
Width                                    : 720 pixels
Height                                   : 384 pixels
Display aspect ratio                     : 1.85:1
Frame rate mode                          : Constant
Frame rate                               : 23.976 fps
Color space                              : YUV
Chroma subsampling                       : 4:2:0
Bit depth                                : 8 bits
Scan type                                : Progressive
Bits/(Pixel*Frame)                       : 0.239
Stream size                              : 1.32 GiB (62%)
Title                                    : Франкенштейн Мері Шелі / Mary Shelley's Frankenstein / Frankenstein (1994) AVC Ukr/Eng | Sub Eng by symba61
Writing library                          : core 142 r2409 d6b4e63
Encoding settings                        : cabac=1 / ref=6 / deblock=1:-2:-2 / analyse=0x3:0x133 / me=umh / subme=10 / psy=1 / psy_rd=1.00:0.00 / mixed_ref=1 / me_range=24 / chroma_me=1 / trellis=2 / 8x8dct=1 / cqm=0 / deadzone=21,11 / fast_pskip=0 / chroma_qp_offset=-2 / threads=6 / lookahead_threads=1 / sliced_threads=0 / nr=0 / decimate=0 / interlaced=0 / bluray_compat=0 / constrained_intra=0 / bframes=5 / b_pyramid=2 / b_adapt=2 / b_bias=0 / direct=3 / weightb=1 / open_gop=0 / weightp=2 / keyint=230 / keyint_min=23 / scenecut=40 / intra_refresh=0 / rc_lookahead=60 / rc=2pass / mbtree=1 / bitrate=1587 / ratetol=1.0 / qcomp=0.60 / qpmin=10 / qpmax=51 / qpstep=4 / cplxblur=20.0 / qblur=0.5 / vbv_maxrate=62500 / vbv_bufsize=78125 / nal_hrd=none / filler=0 / ip_ratio=1.40 / aq=1:1.00
Default                                  : Yes
Forced                                   : No
DURATION                                 : 02:03:10.383000000
NUMBER_OF_FRAMES                         : 177192
NUMBER_OF_BYTES                          : 1465988577
_STATISTICS_WRITING_APP                  : mkvmerge v7.0.0 ('Where We Going') 64bit built on Jun  9 2014 15:16:27
_STATISTICS_WRITING_DATE_UTC             : 2014-11-02 11:52:34
_STATISTICS_TAGS                         : BPS DURATION NUMBER_OF_FRAMES NUMBER_OF_BYTES

Audio #1
ID                                       : 2
Format                                   : AC-3
Format/Info                              : Audio Coding 3
Mode extension                           : CM (complete main)
Format settings, Endianness              : Big
Codec ID                                 : A_AC3
Duration                                 : 2h 3mn
Bit rate mode                            : Constant
Bit rate                                 : 448 Kbps
Channel(s)                               : 6 channels
Channel positions                        : Front: L C R, Side: L R, LFE
Sampling rate                            : 48.0 KHz
Bit depth                                : 16 bits
Compression mode                         : Lossy
Stream size                              : 395 MiB (18%)
Title                                    : Новий Канал (багатоголосий закадровий)
Language                                 : Ukrainian
Default                                  : No
Forced                                   : No

Audio #2
ID                                       : 3
Format                                   : AC-3
Format/Info                              : Audio Coding 3
Mode extension                           : CM (complete main)
Format settings, Endianness              : Big
Codec ID                                 : A_AC3
Duration                                 : 2h 3mn
Bit rate mode                            : Constant
Bit rate                                 : 448 Kbps
Channel(s)                               : 6 channels
Channel positions                        : Front: L C R, Side: L R, LFE
Sampling rate                            : 48.0 KHz
Bit depth                                : 16 bits
Compression mode                         : Lossy
Stream size                              : 395 MiB (18%)
Title                                    : Оригінал
Language                                 : English
Default                                  : No
Forced                                   : No

Text
ID                                       : 4
Format                                   : UTF-8
Codec ID                                 : S_TEXT/UTF8
Codec ID/Info                            : UTF-8 Plain Text
Language                                 : English
Default                                  : No
Forced                                   : No

Menu
00:00:00.000                             : en:00:00:00.000
00:07:31.785                             : en:00:07:31.785
00:13:46.617                             : en:00:13:46.617
00:20:19.051                             : en:00:20:19.051
00:30:20.360                             : en:00:30:20.360
00:35:45.101                             : en:00:35:45.101
00:43:30.066                             : en:00:43:30.066
00:50:27.233                             : en:00:50:27.233
00:56:47.529                             : en:00:56:47.529
01:03:01.152                             : en:01:03:01.152
01:13:12.513                             : en:01:13:12.513
01:21:36.809                             : en:01:21:36.809
01:30:09.821                             : en:01:30:09.821
01:37:28.968                             : en:01:37:28.968
01:44:06.073                             : en:01:44:06.073
01:52:59.982                             : en:01:52:59.982
Скріншоти






[/img]
Джерело:
Особиста оцінка: 10 - без зайвих вагань рекомендую всім!


 Трекер:    Зареєстрований   

Завантажити / скачати фільм українською



відео для новачків



 Зареєстрований:   2014-11-02 15:15
 Розмір:   2.14 GB 
 Оцінка фільму:   9.8/10 (Голосів: 13)
   
Ваш часовий пояс: GMT + 2 Години

Нова тема   Відповісти