Завантажити та скачати торренти українською


Убивця, що плаче / Crying Freeman (1995) 720p Ukr/Eng | Sub Eng

Нові коментарі

Нова тема   Відповісти
Автор Повідомлення
Anonymous 







2014-11-02 13:41  
Убивця, що плаче / Crying Freeman (1995) 720p Ukr/Eng | Sub Eng



Оригінальний та альтернативний постери





Жанр: бойовик, трилер, кримінальний
Країна: Канада, Франція, Японія, США



Кінокомпанія: August Entertainment, Crying Freeman Productions, Davis-Films, Fuji Television Network, Ozla Pictures, Toei Video Company, Tohokushinsha Film, Yuzna Films
Режисер: Крістоф Ганс / Christophe Gans
Актори: Марк Дакаскос / Mark Dacascos, Джулі Кондра / Julie Condra, Рей Дон Чонг / Rae Dawn Chong, Байрон Манн / Byron Mann, Масая Като / Masaya Kato, Чекі Каріо / Tchéky Karyo, Мако / Mako, Деббі Подовскі / Debbie Podowski та інші

Сюжет:
Молодого художника Йо викрадають і "перепрограмовують" у "Визволителя" — винахідливого елітного вбивцю. Він володіє безмежними, майже фантастичними можливостями, здатний ліквідувати навіть керівників японської якудзи, головних противників його володарів, Синів Дракона. Красуня Ему стає випадковим свідком одного з убивств, здійснених Йо. Традиція "вбивць-визволителів" вимагає, щоб вона загинула від його руки. Замість того, вони закохуються одне в одного і починають одіссею пристрасті та насилля.


Вікова категорія: 16+

Тривалість: 01:41:56
Якість: 720p [SbR]
Відео:
кодек:
розмір кадру: 1280 х 534
бітрейт: 8609 кбіт/с [crf=18]

Аудіо # 1:
мова: українська
переклад: багатоголосий закадровий
ролі озвучили: Дмитро Терещук?, Олег Стальчук і два жіночих голоси
кодек: 2.0
бітрейт: 192 кб/с

Аудіо # 2:
мова: англійська
переклад: оригінал
кодек: 5.1
бітрейт: 640 кб/с

Субтитри # 1-3:
мова: англійська (повні / форсовані / SDH)
тип: програмні (м'які)
формат: *.srt

Збережено оригінальні розділи, як на Blu-ray.
MediaInfo
Код:
General
Unique ID                                : 194687227923639394546792396722643843648 (0x9277656DAD4EF2D9B27AF7BCB2E6BA40)
Complete name                            : Crying Freeman (1995) [Ukr,Eng sub.Eng] 720p [Hurtom & HDClub].mkv
Format                                   : Matroska
Format version                           : Version 4 / Version 2
File size                                : 6.86 GiB
Duration                                 : 1h 41mn
Overall bit rate                         : 9 633 Kbps
Movie name                               : Убивця, що плаче / Crying Freeman (1995) 720p [Hurtom & HDClub]
Encoded date                             : UTC 2014-11-02 10:46:51
Writing application                      : mkvmerge v7.3.0 ('Nouages') 64bit built on Oct 22 2014 18:53:34
Writing library                          : libebml v1.3.0 + libmatroska v1.4.1
DURATION                                 : 01:37:57.571000000
NUMBER_OF_FRAMES                         : 773
NUMBER_OF_BYTES                          : 23262
_STATISTICS_WRITING_APP                  : mkvmerge v7.3.0 ('Nouages') 64bit built on Oct 22 2014 18:53:34
_STATISTICS_WRITING_DATE_UTC             : 2014-11-02 10:46:51
_STATISTICS_TAGS                         : BPS DURATION NUMBER_OF_FRAMES NUMBER_OF_BYTES

Video
ID                                       : 1
Format                                   : AVC
Format/Info                              : Advanced Video Codec
Format profile                           : [email protected]
Format settings, CABAC                   : Yes
Format settings, ReFrames                : 9 frames
Codec ID                                 : V_MPEG4/ISO/AVC
Duration                                 : 1h 41mn
Bit rate                                 : 8 609 Kbps
Width                                    : 1 280 pixels
Height                                   : 534 pixels
Display aspect ratio                     : 2.40:1
Frame rate mode                          : Constant
Frame rate                               : 23.976 fps
Color space                              : YUV
Chroma subsampling                       : 4:2:0
Bit depth                                : 8 bits
Scan type                                : Progressive
Bits/(Pixel*Frame)                       : 0.525
Stream size                              : 6.13 GiB (89%)
Title                                    : Убивця, що плаче / Crying Freeman / Плачущий убийца (1995) 720p [SbR]
Writing library                          : core 142 r2431kMod ac76440
Encoding settings                        : cabac=1 / ref=9 / deblock=1:-3:-3 / analyse=0x3:0x133 / me=tesa / subme=11 / psy=1 / fade_compensate=0.00 / psy_rd=1.00:0.05 / mixed_ref=1 / me_range=32 / chroma_me=1 / trellis=2 / 8x8dct=1 / cqm=0 / deadzone=21,11 / fast_pskip=0 / chroma_qp_offset=-3 / threads=6 / lookahead_threads=1 / sliced_threads=0 / nr=0 / decimate=1 / interlaced=0 / bluray_compat=0 / constrained_intra=0 / fgo=0 / bframes=12 / b_pyramid=2 / b_adapt=2 / b_bias=0 / direct=3 / weightb=1 / open_gop=0 / weightp=2 / keyint=250 / keyint_min=23 / scenecut=40 / intra_refresh=0 / rc_lookahead=60 / rc=crf / mbtree=0 / crf=18.0000 / qcomp=0.75 / qpmin=0 / qpmax=69 / qpstep=4 / vbv_maxrate=62500 / vbv_bufsize=78125 / crf_max=0.0 / nal_hrd=none / filler=0 / ip_ratio=1.30 / pb_ratio=1.20 / aq=1:0.60
Language                                 : English
Default                                  : Yes
Forced                                   : No
Matrix coefficients                      : BT.709
DURATION                                 : 01:41:56.569000000
NUMBER_OF_FRAMES                         : 146651
NUMBER_OF_BYTES                          : 6727304825
_STATISTICS_WRITING_APP                  : mkvmerge v7.3.0 ('Nouages') 64bit built on Oct 22 2014 18:53:34
_STATISTICS_WRITING_DATE_UTC             : 2014-11-02 10:46:51
_STATISTICS_TAGS                         : BPS DURATION NUMBER_OF_FRAMES NUMBER_OF_BYTES

Audio #1
ID                                       : 2
Format                                   : AC-3
Format/Info                              : Audio Coding 3
Mode extension                           : CM (complete main)
Format settings, Endianness              : Big
Codec ID                                 : A_AC3
Duration                                 : 1h 41mn
Bit rate mode                            : Constant
Bit rate                                 : 192 Kbps
Channel(s)                               : 2 channels
Channel positions                        : Front: L R
Sampling rate                            : 48.0 KHz
Bit depth                                : 16 bits
Compression mode                         : Lossy
Stream size                              : 140 MiB (2%)
Title                                    : MVO [НТН] 2.0 192 kbps [Hurtom-_oles]
Language                                 : Ukrainian
Default                                  : Yes
Forced                                   : No

Audio #2
ID                                       : 3
Format                                   : AC-3
Format/Info                              : Audio Coding 3
Mode extension                           : CM (complete main)
Format settings, Endianness              : Big
Codec ID                                 : A_AC3
Duration                                 : 1h 41mn
Bit rate mode                            : Constant
Bit rate                                 : 640 Kbps
Channel(s)                               : 6 channels
Channel positions                        : Front: L C R, Side: L R, LFE
Sampling rate                            : 48.0 KHz
Bit depth                                : 16 bits
Compression mode                         : Lossy
Stream size                              : 467 MiB (7%)
Title                                    : Original 5.1 640 kbps
Language                                 : English
Default                                  : No
Forced                                   : No

Text #1
ID                                       : 4
Format                                   : UTF-8
Codec ID                                 : S_TEXT/UTF8
Codec ID/Info                            : UTF-8 Plain Text
Title                                    : Eng full
Language                                 : English
Default                                  : No
Forced                                   : No

Text #2
ID                                       : 5
Format                                   : UTF-8
Codec ID                                 : S_TEXT/UTF8
Codec ID/Info                            : UTF-8 Plain Text
Title                                    : Eng Forced
Language                                 : English
Default                                  : No
Forced                                   : No

Text #3
ID                                       : 6
Format                                   : UTF-8
Codec ID                                 : S_TEXT/UTF8
Codec ID/Info                            : UTF-8 Plain Text
Title                                    : Eng SDH
Language                                 : English
Default                                  : No
Forced                                   : No

Menu
00:00:00.000                             : en:00:00:00.000
00:03:34.961                             : en:00:03:34.961
00:10:11.235                             : en:00:10:11.235
00:11:53.086                             : en:00:11:53.086
00:15:56.413                             : en:00:15:56.413
00:20:16.086                             : en:00:20:16.086
00:22:51.241                             : en:00:22:51.241
00:26:30.711                             : en:00:26:30.711
00:30:58.019                             : en:00:30:58.019
00:33:44.394                             : en:00:33:44.394
00:40:29.592                             : en:00:40:29.592
00:45:50.581                             : en:00:45:50.581
00:48:46.965                             : en:00:48:46.965
00:50:47.293                             : en:00:50:47.293
00:53:30.289                             : en:00:53:30.289
00:59:04.414                             : en:00:59:04.414
01:01:08.373                             : en:01:01:08.373
01:06:21.143                             : en:01:06:21.143
01:07:48.063                             : en:01:07:48.063
01:11:23.153                             : en:01:11:23.153
01:14:47.649                             : en:01:14:47.649
01:20:24.944                             : en:01:20:24.944
01:25:44.595                             : en:01:25:44.595
01:35:17.002                             : en:01:35:17.002




Джерела та подяки: &
ріп відео, оригінальні звук та субтитри - SbR (HDbits), delia (HDClub); українська доріжка - _oles - зведення, drakon87 - запис з ТБ, omm - синхронізація під BD; українізація постерів - drakon87 та Бодя; фільмографії акторів та інформація про озвучення - Віктор (всі - Гуртом).


ЗАЛИШАЙТЕСЬ ЯКОМОГА ДОВШЕ НА РОЗДАЧІ!

СКАЧАВ САМ - ДАЙ СКАЧАТИ ІНШИМ


Срібний реліз (на рейтинг впливає 50% завантаженого)
 Трекер:    Зареєстрований   

Завантажити / скачати фільм українською



відео для новачків



 Зареєстрований:   2014-11-02 13:41
 Розмір:   6.86 GB 
 Оцінка фільму:   3.6/10 (Голосів: 14)
   
Інші релізи
   Убивця, що плаче / Crying Freeman (1995) Ukr/Eng | Sub Eng omm  3 / 2   1.85 GB   2014-06-29 11:07 
   Вбивця, що плаче / Crying Freeman (1995) Ukr/Eng _oles  0 / 0   1.46 GB   2009-11-18 10:19 
Ваш часовий пояс: GMT + 2 Години

Нова тема   Відповісти