Завантажити та скачати торренти українською


Пітер Пен / Peter Pan (2003) 720p Ukr/Eng | Sub Eng/Multi

Нові коментарі

Нова тема   Відповісти
Автор Повідомлення
Anonymous 







2014-11-01 18:25  
Пітер Пен / Peter Pan (2003) 720p Ukr/Eng | Sub Eng/Multi



Українізований постер



Жанр: фентезі, мелодрама, пригодницький, сімейний
Країна: Австралія, Велика Британія, США



Кінокомпанія: Universal Pictures, Columbia Pictures Corporation, Revolution Studios, Red Wagon Entertainment, Allied Stars Ltd.
Режисер: П. Дж. Хоган / P.J. Hogan
Актори: Джейсон Айзекс / Jason Isaacs, Джеремі Самптер / Jeremy Sumpter, Рейчел Херд-Вуд / Rachel Hurd-Wood, Лінн Редгрейв / Lynn Redgrave, Олівія Вільямс / Olivia Williams та інші

Сюжет:
Кожну ніч Венді Дарлінг розповідає своїм братам захоплюючі історії про піратів та їх підступного ватажка капітана Гака. Але одного разу в її кімнаті з'являється Пітер Пен - хлопчик, який колись вирішив ніколи не дорослішати. З його допомогою Венді та її брати відправляються в загадкову країну, де для дітей не існує вигаданих дорослими правил і де насправді існує Капітан Гак ...


Рейтинг MPAA: PG - рекомендується присутність батьків
Вікова категорія: 6+

Тривалість: 01:53:21
Якість: 720p [CRiSC]
Відео:
кодек:
розмір кадру: 1280x534
бітрейт: 5645 кбіт/с [crf=16]

Аудіо # 1:
мова: українська
переклад: багатоголосий закадровий
кодек: 2.0
бітрейт: 192 кбіт/с

Аудіо # 2:
мова: англійська
переклад: оригінал
кодек: 5.1
бітрейт: 640 кбіт/с

Субтитри #1-10:
мова: англійська, болгарська, грецька, угорська, італійська, чеська, польська, португальська, словенська, іспанська
тип: програмні (м'які)
формат: *.srt

Збережено оригінальні розділи, як на Blu-ray.
MediaInfo
Код:
General
Unique ID                                : 182507785407650528516350357559862786377 (0x894DB88CE7ACE3CE8893843C9D8E7949)
Complete name                            : Peter Pan (2003) [Ukr,Eng sub.Eng,Multi] 720p [Hurtom & HDClub].mkv
Format                                   : Matroska
Format version                           : Version 4 / Version 2
File size                                : 5.23 GiB
Duration                                 : 1h 53mn
Overall bit rate                         : 6 605 Kbps
Movie name                               : Пітер Пен / Peter Pan (2003) 720p [Hurtom & HDClub]
Encoded date                             : UTC 2014-11-01 18:50:30
Writing application                      : mkvmerge v7.3.0 ('Nouages') 64bit built on Oct 22 2014 18:53:34
Writing library                          : libebml v1.3.0 + libmatroska v1.4.1
DURATION                                 : 01:41:38.291000000
NUMBER_OF_FRAMES                         : 968
NUMBER_OF_BYTES                          : 32375
_STATISTICS_WRITING_APP                  : mkvmerge v7.3.0 ('Nouages') 64bit built on Oct 22 2014 18:53:34
_STATISTICS_WRITING_DATE_UTC             : 2014-11-01 18:50:30
_STATISTICS_TAGS                         : BPS DURATION NUMBER_OF_FRAMES NUMBER_OF_BYTES

Video
ID                                       : 1
Format                                   : AVC
Format/Info                              : Advanced Video Codec
Format profile                           : [email protected]
Format settings, CABAC                   : Yes
Format settings, ReFrames                : 12 frames
Codec ID                                 : V_MPEG4/ISO/AVC
Duration                                 : 1h 53mn
Bit rate                                 : 5 641 Kbps
Width                                    : 1 280 pixels
Height                                   : 534 pixels
Display aspect ratio                     : 2.40:1
Frame rate mode                          : Constant
Frame rate                               : 23.976 fps
Color space                              : YUV
Chroma subsampling                       : 4:2:0
Bit depth                                : 8 bits
Scan type                                : Progressive
Bits/(Pixel*Frame)                       : 0.344
Stream size                              : 4.47 GiB (85%)
Title                                    : Пітер Пен / Peter Pan / Питер Пэн (2003) 720p [CRiSC]
Writing library                          : core 142 r2431+42 c69a006 tMod [[email protected]:2:0 X86_64]
Encoding settings                        : cabac=1 / ref=12 / deblock=1:-3:-3 / analyse=0x3:0x133 / me=umh / subme=10 / psy=1 / fade_compensate=0.00 / psy_rd=1.00:0.00 / mixed_ref=1 / me_range=24 / chroma_me=1 / trellis=2 / 8x8dct=1 / cqm=0 / deadzone=21,11 / fast_pskip=1 / chroma_qp_offset=-2 / threads=12 / lookahead_threads=2 / sliced_threads=0 / nr=0 / decimate=1 / interlaced=0 / bluray_compat=0 / constrained_intra=0 / fgo=0 / bframes=8 / b_pyramid=2 / b_adapt=2 / b_bias=0 / direct=3 / weightb=1 / open_gop=0 / weightp=2 / keyint=250 / keyint_min=23 / scenecut=40 / intra_refresh=0 / rc_lookahead=60 / rc=crf / mbtree=0 / crf=16.0000 / qcomp=0.65 / qpmin=0:0:0 / qpmax=69:69:69 / qpstep=4 / vbv_maxrate=62500 / vbv_bufsize=78125 / crf_max=0.0 / nal_hrd=none / filler=0 / ip_ratio=1.30 / pb_ratio=1.20 / aq=4:0.85 / aq-sensitivity=10.00 / aq-factor=1.00:1.00:1.00 / aq2=0 / aq3=0
Language                                 : English
Default                                  : Yes
Forced                                   : No
Matrix coefficients                      : BT.709
DURATION                                 : 01:53:21.795000000
NUMBER_OF_FRAMES                         : 163080
NUMBER_OF_BYTES                          : 4905765021
_STATISTICS_WRITING_APP                  : mkvmerge v7.3.0 ('Nouages') 64bit built on Oct 22 2014 18:53:34
_STATISTICS_WRITING_DATE_UTC             : 2014-11-01 18:50:30
_STATISTICS_TAGS                         : BPS DURATION NUMBER_OF_FRAMES NUMBER_OF_BYTES

Audio #1
ID                                       : 2
Format                                   : AC-3
Format/Info                              : Audio Coding 3
Mode extension                           : CM (complete main)
Format settings, Endianness              : Big
Codec ID                                 : A_AC3
Duration                                 : 1h 53mn
Bit rate mode                            : Constant
Bit rate                                 : 192 Kbps
Channel(s)                               : 2 channels
Channel positions                        : Front: L R
Sampling rate                            : 48.0 KHz
Bit depth                                : 16 bits
Compression mode                         : Lossy
Stream size                              : 156 MiB (3%)
Title                                    : MVO [Ukraina] 2.0 192 kbps [Hurtom-Snuryus]
Language                                 : Ukrainian
Default                                  : Yes
Forced                                   : No

Audio #2
ID                                       : 3
Format                                   : AC-3
Format/Info                              : Audio Coding 3
Mode extension                           : CM (complete main)
Format settings, Endianness              : Big
Codec ID                                 : A_AC3
Duration                                 : 1h 53mn
Bit rate mode                            : Constant
Bit rate                                 : 640 Kbps
Channel(s)                               : 6 channels
Channel positions                        : Front: L C R, Side: L R, LFE
Sampling rate                            : 48.0 KHz
Bit depth                                : 16 bits
Compression mode                         : Lossy
Stream size                              : 519 MiB (10%)
Title                                    : Original 5.1 640 kbps
Language                                 : English
Default                                  : No
Forced                                   : No

Text #1
ID                                       : 4
Format                                   : UTF-8
Codec ID                                 : S_TEXT/UTF8
Codec ID/Info                            : UTF-8 Plain Text
Language                                 : English
Default                                  : No
Forced                                   : No

Text #2
ID                                       : 5
Format                                   : UTF-8
Codec ID                                 : S_TEXT/UTF8
Codec ID/Info                            : UTF-8 Plain Text
Language                                 : Bulgarian
Default                                  : No
Forced                                   : No

Text #3
ID                                       : 6
Format                                   : UTF-8
Codec ID                                 : S_TEXT/UTF8
Codec ID/Info                            : UTF-8 Plain Text
Language                                 : Greek
Default                                  : No
Forced                                   : No

Text #4
ID                                       : 7
Format                                   : UTF-8
Codec ID                                 : S_TEXT/UTF8
Codec ID/Info                            : UTF-8 Plain Text
Language                                 : Hungarian
Default                                  : No
Forced                                   : No

Text #5
ID                                       : 8
Format                                   : UTF-8
Codec ID                                 : S_TEXT/UTF8
Codec ID/Info                            : UTF-8 Plain Text
Language                                 : Italian
Default                                  : No
Forced                                   : No

Text #6
ID                                       : 9
Format                                   : UTF-8
Codec ID                                 : S_TEXT/UTF8
Codec ID/Info                            : UTF-8 Plain Text
Language                                 : Czech
Default                                  : No
Forced                                   : No

Text #7
ID                                       : 10
Format                                   : UTF-8
Codec ID                                 : S_TEXT/UTF8
Codec ID/Info                            : UTF-8 Plain Text
Language                                 : Polish
Default                                  : No
Forced                                   : No

Text #8
ID                                       : 11
Format                                   : UTF-8
Codec ID                                 : S_TEXT/UTF8
Codec ID/Info                            : UTF-8 Plain Text
Language                                 : Portuguese
Default                                  : No
Forced                                   : No

Text #9
ID                                       : 12
Format                                   : UTF-8
Codec ID                                 : S_TEXT/UTF8
Codec ID/Info                            : UTF-8 Plain Text
Language                                 : Slovenian
Default                                  : No
Forced                                   : No

Text #10
ID                                       : 13
Format                                   : UTF-8
Codec ID                                 : S_TEXT/UTF8
Codec ID/Info                            : UTF-8 Plain Text
Language                                 : Spanish
Default                                  : No
Forced                                   : No

Menu
00:00:00.000                             : :00:00:00.000
00:06:03.071                             : :00:06:03.071
00:14:48.012                             : :00:14:48.012
00:20:21.262                             : :00:20:21.262
00:26:23.499                             : :00:26:23.499
00:32:24.234                             : :00:32:24.234
00:39:31.703                             : :00:39:31.703
00:46:10.142                             : :00:46:10.142
00:52:38.572                             : :00:52:38.572
00:59:41.912                             : :00:59:41.912
01:05:30.593                             : :01:05:30.593
01:11:57.063                             : :01:11:57.063
01:20:14.184                             : :01:20:14.184
01:25:10.355                             : :01:25:10.355
01:31:50.714                             : :01:31:50.714
01:40:05.416                             : :01:40:05.416




Джерела та подяки: &
ріп відео, оригінальні звук та субтитри - CRiSC (HDbits), madoff (HDClub); українська доріжка - Snuryus - зведення, Disturbed - запис з ТБ; українізований постер - grytzz (всі - Гуртом).


ЗАЛИШАЙТЕСЬ ЯКОМОГА ДОВШЕ НА РОЗДАЧІ!

СКАЧАВ САМ - ДАЙ СКАЧАТИ ІНШИМ


Срібний реліз (на рейтинг впливає 50% завантаженого)
 Трекер:    Зареєстрований   

Завантажити / скачати фільм українською



відео для новачків



 Зареєстрований:   2014-11-01 21:05
 Розмір:   5.23 GB 
 Оцінка фільму:   4/10 (Голосів: 15)
   
Інші релізи
   Пітер Пен / Peter Pan (2003) Ukr/Eng Snuryus  7 / 0   1.98 GB   2011-04-19 22:36 
Ваш часовий пояс: GMT + 2 Години

Нова тема   Відповісти