Завантажити та скачати торренти українською


Паразити / The Thaw (2009) 720p Ukr/Eng | Sub Multi

Нові коментарі

Нова тема   Відповісти
Автор Повідомлення
Anonymous 







2014-10-31 20:30  
Паразити / The Thaw (2009) 720p Ukr/Eng | Sub Multi



Жанр: жахи, фантастика, трилер
Країна: США, Канада



Кінокомпанія: Anagram Pictures, Etch Media, Artifact Films
Режисер: Марк А. Льюіс / Mark A. Lewis
Актори: Вел Кілмер / Val Kilmer, Александра Стейсон / Alexandra Staseson, Бред Драйборо / Brad Dryborough, Грег Роджерс / Greg Rogers, Гарі Чок / Garry Chalk, Вільям Б. Девіс / William B. Davis, Пітер Келаміс / Peter Kelamis, Бренда Крічлоу / Brenda Crichlow, Енн Марі ДеЛуіс / Anne Marie DeLuise та інші.

Сюжет:
Дія відбувається в Арктиці. У центрі сюжету - група дослідників, яка піддалася нападу паразита-вбивці, який вирвався на свободу внаслідок танення арктичних льодів.


Рейтинг MPAA: R - особам до 17 років обов'язкова присутність батьків або дорослого опікуна
Вікова категорія: 16+

Тривалість: 01:33:57
Якість: 720p [CRiSC]
Відео:
кодек:
розмір кадру: 1280x534
бітрейт: 7728 кбіт/с [crf=16.5]

Аудіо # 1:
мова: українська
переклад: двоголосий закадровий
ролі озвучили: Михайло Жонін та Лідія Муращенко
кодек: 2.0
бітрейт: 192 кбіт/с

Аудіо # 2:
мова: англійська
переклад: оригінал
кодек: 5.1
бітрейт: 1509 кбіт/с

Субтитри #1-5:
мова: англійська, чеська, грецька, португальська, румунська
тип: програмні (м'які)
формат: *.srt

Збережено оригінальні розділи, як на Blu-ray.
MediaInfo
Код:
General
Unique ID                                : 219186176855088529907065430710924278882 (0xA4E5B8DE2C646321B0D35F5FD1F6FC62)
Complete name                            : The Thaw (2009) [Ukr,Eng sub.Multi] 720p [Hurtom & HDClub].mkv
Format                                   : Matroska
Format version                           : Version 4 / Version 2
File size                                : 6.33 GiB
Duration                                 : 1h 34mn
Overall bit rate                         : 9 620 Kbps
Movie name                               : Паразити / The Thaw (2009) 720p [Hurtom & HDClub]
Encoded date                             : UTC 2014-10-31 16:59:10
Writing application                      : mkvmerge v7.3.0 ('Nouages') 64bit built on Oct 22 2014 18:53:34
Writing library                          : libebml v1.3.0 + libmatroska v1.4.1
DURATION                                 : 01:26:47.225000000
NUMBER_OF_FRAMES                         : 856
NUMBER_OF_BYTES                          : 27811
_STATISTICS_WRITING_APP                  : mkvmerge v7.3.0 ('Nouages') 64bit built on Oct 22 2014 18:53:34
_STATISTICS_WRITING_DATE_UTC             : 2014-10-31 16:59:10
_STATISTICS_TAGS                         : BPS DURATION NUMBER_OF_FRAMES NUMBER_OF_BYTES

Video
ID                                       : 1
Format                                   : AVC
Format/Info                              : Advanced Video Codec
Format profile                           : [email protected]
Format settings, CABAC                   : Yes
Format settings, ReFrames                : 12 frames
Codec ID                                 : V_MPEG4/ISO/AVC
Duration                                 : 1h 34mn
Bit rate                                 : 7 728 Kbps
Width                                    : 1 280 pixels
Height                                   : 534 pixels
Display aspect ratio                     : 2.40:1
Frame rate mode                          : Constant
Frame rate                               : 24.000 fps
Color space                              : YUV
Chroma subsampling                       : 4:2:0
Bit depth                                : 8 bits
Scan type                                : Progressive
Bits/(Pixel*Frame)                       : 0.471
Stream size                              : 5.08 GiB (80%)
Title                                    : Паразити / The Thaw / Оттепель (2009) 720p [CRiSC]
Writing library                          : core 142 r2431+42 c69a006 tMod [[email protected]:2:0 X86_64]
Encoding settings                        : cabac=1 / ref=12 / deblock=1:-3:-3 / analyse=0x3:0x133 / me=umh / subme=10 / psy=1 / fade_compensate=0.00 / psy_rd=1.00:0.00 / mixed_ref=1 / me_range=24 / chroma_me=1 / trellis=2 / 8x8dct=1 / cqm=0 / deadzone=21,11 / fast_pskip=1 / chroma_qp_offset=-2 / threads=12 / lookahead_threads=2 / sliced_threads=0 / nr=0 / decimate=1 / interlaced=0 / bluray_compat=0 / constrained_intra=0 / fgo=0 / bframes=7 / b_pyramid=2 / b_adapt=2 / b_bias=0 / direct=3 / weightb=1 / open_gop=0 / weightp=2 / keyint=250 / keyint_min=24 / scenecut=40 / intra_refresh=0 / rc_lookahead=60 / rc=crf / mbtree=0 / crf=16.5000 / qcomp=0.65 / qpmin=0:0:0 / qpmax=69:69:69 / qpstep=4 / vbv_maxrate=62500 / vbv_bufsize=78125 / crf_max=0.0 / nal_hrd=none / filler=0 / ip_ratio=1.30 / pb_ratio=1.20 / aq=4:0.85 / aq-sensitivity=10.00 / aq-factor=1.00:1.00:1.00 / aq2=0 / aq3=0
Language                                 : English
Default                                  : Yes
Forced                                   : No
Matrix coefficients                      : BT.709
DURATION                                 : 01:33:57.584000000
NUMBER_OF_FRAMES                         : 135302
NUMBER_OF_BYTES                          : 5594090195
_STATISTICS_WRITING_APP                  : mkvmerge v7.3.0 ('Nouages') 64bit built on Oct 22 2014 18:53:34
_STATISTICS_WRITING_DATE_UTC             : 2014-10-31 16:59:10
_STATISTICS_TAGS                         : BPS DURATION NUMBER_OF_FRAMES NUMBER_OF_BYTES

Audio #1
ID                                       : 2
Format                                   : AC-3
Format/Info                              : Audio Coding 3
Mode extension                           : CM (complete main)
Format settings, Endianness              : Big
Codec ID                                 : A_AC3
Duration                                 : 1h 34mn
Bit rate mode                            : Constant
Bit rate                                 : 192 Kbps
Channel(s)                               : 2 channels
Channel positions                        : Front: L R
Sampling rate                            : 48.0 KHz
Bit depth                                : 16 bits
Compression mode                         : Lossy
Stream size                              : 129 MiB (2%)
Title                                    : DVO [1+1] 2.0 192 kbps [Hurtom-Lan,Vasua95]
Language                                 : Ukrainian
Default                                  : Yes
Forced                                   : No

Audio #2
ID                                       : 3
Format                                   :
Format/Info                              : Digital Theater Systems
Mode                                     : 16
Format settings, Endianness              : Big
Codec ID                                 : A_DTS
Duration                                 : 1h 34mn
Bit rate mode                            : Constant
Bit rate                                 : 1 509 Kbps
Channel(s)                               : 6 channels
Channel positions                        : Front: L C R, Side: L R, LFE
Sampling rate                            : 48.0 KHz
Bit depth                                : 24 bits
Compression mode                         : Lossy
Stream size                              : 1 017 MiB (16%)
Title                                    : Original 5.1 1509 kbps
Language                                 : English
Default                                  : No
Forced                                   : No

Text #1
ID                                       : 4
Format                                   : UTF-8
Codec ID                                 : S_TEXT/UTF8
Codec ID/Info                            : UTF-8 Plain Text
Language                                 : English
Default                                  : No
Forced                                   : No

Text #2
ID                                       : 5
Format                                   : UTF-8
Codec ID                                 : S_TEXT/UTF8
Codec ID/Info                            : UTF-8 Plain Text
Language                                 : Czech
Default                                  : No
Forced                                   : No

Text #3
ID                                       : 6
Format                                   : UTF-8
Codec ID                                 : S_TEXT/UTF8
Codec ID/Info                            : UTF-8 Plain Text
Language                                 : Greek
Default                                  : No
Forced                                   : No

Text #4
ID                                       : 7
Format                                   : UTF-8
Codec ID                                 : S_TEXT/UTF8
Codec ID/Info                            : UTF-8 Plain Text
Language                                 : Portuguese
Default                                  : No
Forced                                   : No

Text #5
ID                                       : 8
Format                                   : UTF-8
Codec ID                                 : S_TEXT/UTF8
Codec ID/Info                            : UTF-8 Plain Text
Language                                 : Romanian
Default                                  : No
Forced                                   : No

Menu
00:00:00.000                             : :00:00:00.000
00:14:35.625                             : :00:14:35.625
00:28:32.500                             : :00:28:32.500
00:37:12.875                             : :00:37:12.875
00:47:57.875                             : :00:47:57.875
00:57:44.208                             : :00:57:44.208
01:07:34.458                             : :01:07:34.458
01:23:45.250                             : :01:23:45.250




Джерела та подяки: &
ріп відео, оригінальні звук та субтитри - CRiSC (HDbits), madoff (HDClub); українська доріжка - Lan - зведення, Vasua95 - наданий звук; фільмографії акторів та інформація про озвучення - Віктор (всі - Гуртом).


ЗАЛИШАЙТЕСЬ ЯКОМОГА ДОВШЕ НА РОЗДАЧІ!

СКАЧАВ САМ - ДАЙ СКАЧАТИ ІНШИМ


 Трекер:    Зареєстрований   

Завантажити / скачати фільм українською



відео для новачків



 Зареєстрований:   2014-10-31 20:30
 Розмір:   6.33 GB 
 Оцінка фільму:   4.2/10 (Голосів: 17)
   
Інші релізи
   Паразити / The Thaw (2009) AngryBirdsUA  2 / 0   1.43 GB   2011-04-28 20:43 
Ваш часовий пояс: GMT + 2 Години

Нова тема   Відповісти