Завантажити та скачати торренти українською


У смертельній небезпеці (У зоні смертельної небезпеки) / On Deadly Ground (1994) 720p 2xUkr/Eng | Sub Eng

Нові коментарі

Нова тема   Відповісти
Автор Повідомлення
Anonymous 







2014-10-29 17:37  
У смертельній небезпеці (У зоні смертельної небезпеки) / On Deadly Ground (1994) 720p 2xUkr/Eng | Sub Eng



Жанр: бойовик, трилер, пригодницький
Країна: СШа



Кінокомпанія: Seagal/Nasso Productions, Warner Bros.
Режисер: Стівен Сігал / Steven Seagal
Актори: Стівен Сіґал / Steven Seagal, Майкл Кейн / Michael Caine, Джоан Чен / Joan Chen та інші

Сюжет:
Форест Тафт, спеціаліст з різного роду надзвичайних ситуацій, працює у нафтовій компанії цинічного власника Майкла Дженінгса. Працювати доводиться багато, завдяки Дженінгсу, який економлячи на матеріалах і вузлах, зовсім не турбується про "чистоту" виробництва і навколишнього середовища. Ось і доводиться постійно гасити пожежі на вишках, ліквідувати витоки газів і сперечатися з місцевими екологами. І все б нічого, але горили Дженінгса, замітаючи сліди чергового "проколу" свого шефа, спочатку вбивають друга Тафта, а потім намагаються підставити і вбити його самого.
Та, виявляється, Тафт не просто спеціаліст-підривник, а справжній експерт з питань виживання і "заспокоєння" надокучливих спецназівців та найманців, які намагаються його "прибрати". Тепер вже підлому нафтовику доводиться турбуватися не про те, як заробляти капітал, а як втікти від розгніваного "МНСника"...


Рейтинг MPAA: R - особам до 17 років обов'язкова присутність батьків або дорослого опікуна
Вікова категорія: 16+

Тривалість: 01:41:40
Якість: 720p
Відео:
кодек:
розмір кадру: 1280x534
бітрейт: 4102 кбіт/с

Аудіо # 1:
мова: українська
переклад: багатоголосий закадровий
ролі озвучили: Стівен Сіґал — Юрій Ребрик, Джон С. Маꥳнлі — Юрій Гребельник, Майкл Кейн — Роман Семисал і один жіночий
кодек: 2.0
бітрейт: 192 кбіт/с

Аудіо # 2:
мова: українська
переклад: двоголосий закадровий
ролі озвучили: Євген Пашин та Катерина Брайковська
кодек: 2.0
бітрейт: 192 кбіт/с

Аудіо # 3:
мова: англійська
переклад: оригінал
кодек: 5.1
бітрейт: 384 кбіт/с

Субтитри:
мова: англійська
тип: програмні (м'які)
формат: *.srt

Збережено оригінальні розділи
MediaInfo
Код:
General
Unique ID                                : 252612798933622807504653152515761313048 (0xBE0B7493CB88EE1CBAC01265335B1518)
Complete name                            : On Deadly Ground (1994) [2xUkr,Eng sub.Eng] 720p [Hurtom & HDClub].mkv
Format                                   : Matroska
Format version                           : Version 4 / Version 2
File size                                : 3.53 GiB
Duration                                 : 1h 41mn
Overall bit rate                         : 4 969 Kbps
Movie name                               : У смертельній небезпеці / У зоні смертельної небезпеки / On Deadly Ground (1994) 720p [Hurtom & HDClub]
Encoded date                             : UTC 2014-10-29 07:46:21
Writing application                      : mkvmerge v7.3.0 ('Nouages') 64bit built on Oct 22 2014 18:53:34
Writing library                          : libebml v1.3.0 + libmatroska v1.4.1
DURATION                                 : 01:35:23.656000000
NUMBER_OF_FRAMES                         : 984
NUMBER_OF_BYTES                          : 35584
_STATISTICS_WRITING_APP                  : mkvmerge v7.3.0 ('Nouages') 64bit built on Oct 22 2014 18:53:34
_STATISTICS_WRITING_DATE_UTC             : 2014-10-29 07:46:21
_STATISTICS_TAGS                         : BPS DURATION NUMBER_OF_FRAMES NUMBER_OF_BYTES

Video
ID                                       : 1
Format                                   : AVC
Format/Info                              : Advanced Video Codec
Format profile                           : [email protected]
Format settings, CABAC                   : No
Format settings, ReFrames                : 2 frames
Format settings, GOP                     : N=1
Codec ID                                 : V_MPEG4/ISO/AVC
Duration                                 : 1h 41mn
Bit rate                                 : 4 102 Kbps
Width                                    : 1 280 pixels
Height                                   : 534 pixels
Display aspect ratio                     : 2.40:1
Frame rate mode                          : Constant
Frame rate                               : 23.976 fps
Color space                              : YUV
Chroma subsampling                       : 4:2:0
Bit depth                                : 8 bits
Scan type                                : Progressive
Bits/(Pixel*Frame)                       : 0.250
Stream size                              : 2.91 GiB (83%)
Title                                    : У смертельній небезпеці / У зоні смертельної небезпеки / On Deadly Ground / В смертельной опасности (1994) 720p [HDClub]
Language                                 : English
Default                                  : Yes
Forced                                   : No
Color primaries                          : BT.709
Transfer characteristics                 : BT.709
Matrix coefficients                      : BT.709

Audio #1
ID                                       : 2
Format                                   : AC-3
Format/Info                              : Audio Coding 3
Mode extension                           : CM (complete main)
Format settings, Endianness              : Big
Codec ID                                 : A_AC3
Duration                                 : 1h 41mn
Bit rate mode                            : Constant
Bit rate                                 : 192 Kbps
Channel(s)                               : 2 channels
Channel positions                        : Front: L R
Sampling rate                            : 48.0 KHz
Bit depth                                : 16 bits
Compression mode                         : Lossy
Stream size                              : 140 MiB (4%)
Title                                    : MVO [ICTV] 2.0 192 kbps [Hurtom-Merdiff]
Language                                 : Ukrainian
Default                                  : Yes
Forced                                   : No

Audio #2
ID                                       : 3
Format                                   : AC-3
Format/Info                              : Audio Coding 3
Mode extension                           : CM (complete main)
Format settings, Endianness              : Big
Codec ID                                 : A_AC3
Duration                                 : 1h 41mn
Bit rate mode                            : Constant
Bit rate                                 : 192 Kbps
Channel(s)                               : 2 channels
Channel positions                        : Front: L R
Sampling rate                            : 48.0 KHz
Bit depth                                : 16 bits
Compression mode                         : Lossy
Stream size                              : 140 MiB (4%)
Title                                    : DVO [Novyj] 2.0 192 kbps [Hurtom-bodia87]
Language                                 : Ukrainian
Default                                  : No
Forced                                   : No

Audio #3
ID                                       : 4
Format                                   : AC-3
Format/Info                              : Audio Coding 3
Mode extension                           : CM (complete main)
Format settings, Endianness              : Big
Codec ID                                 : A_AC3
Duration                                 : 1h 41mn
Bit rate mode                            : Constant
Bit rate                                 : 384 Kbps
Channel(s)                               : 6 channels
Channel positions                        : Front: L C R, Side: L R, LFE
Sampling rate                            : 48.0 KHz
Bit depth                                : 16 bits
Compression mode                         : Lossy
Stream size                              : 279 MiB (8%)
Title                                    : Original 5.1 384 kbps
Language                                 : English
Default                                  : No
Forced                                   : No

Text
ID                                       : 5
Format                                   : UTF-8
Codec ID                                 : S_TEXT/UTF8
Codec ID/Info                            : UTF-8 Plain Text
Language                                 : English
Default                                  : No
Forced                                   : No

Menu
00:00:00.000                             : en:Wilderness Credits
00:02:21.000                             : en:Blazing Disaster
00:07:18.000                             : en:Finding Fault
00:08:19.000                             : en:Abby's Rough Crowd
00:13:34.000                             : en:Playing W/cupcake
00:17:24.000                             : en:Aegis Oil Cares
00:19:35.000                             : en:Rid Of Problems
00:21:52.000                             : en:Unauthorized Access
00:24:41.000                             : en:Last Of H. Palmer
00:29:08.000                             : en:Oil Spill
00:31:55.000                             : en:A Trap For Forrest
00:34:19.000                             : en:Rescued
00:36:16.000                             : en:Framed
00:37:23.000                             : en:What Bear Would Say
00:42:34.000                             : en:The Spirit Within
00:46:20.000                             : en:The Chosen One
00:48:58.000                             : en:Pulls The Trigger
00:51:20.000                             : en:To Spirit Warrior
00:54:23.000                             : en:Targets At Hugh's
00:58:13.000                             : en:Outside Help
01:00:15.000                             : en:What Really Matters
01:03:29.000                             : en:Bait For Hunters
01:08:14.000                             : en:Horseback Pursuit
01:12:51.000                             : en:Inside Aegis One
01:17:12.000                             : en:Reach And Touch
01:19:12.000                             : en:A Professional
01:21:15.000                             : en:Abandon Ship
01:23:02.000                             : en:Target: The Rig
01:25:35.000                             : en:His Aim Backfires
01:26:24.000                             : en:Hand-to-hand Havoc
01:28:24.000                             : en:Jennings Takes Fall
01:30:12.000                             : en:Inferno
01:32:25.000                             : en:To Do What's Right
01:36:42.000                             : en:End Credits




Джерела та подяки: &
ріп відео, оригінальні звук та субтитри - HDClub; українські доріжки - Merdiff (1), bodia87 (2) - зведення та запис з ТБ; фільмографії акторів та інформація про озвучення - Віктор (всі - Гуртом).


ЗАЛИШАЙТЕСЬ ЯКОМОГА ДОВШЕ НА РОЗДАЧІ!

СКАЧАВ САМ - ДАЙ СКАЧАТИ ІНШИМ


Срібний реліз (на рейтинг впливає 50% завантаженого)
 Трекер:    Зареєстрований   

Завантажити / скачати фільм українською



відео для новачків



 Зареєстрований:   2014-10-29 17:37
 Розмір:   3.53 GB 
 Оцінка фільму:   3.6/10 (Голосів: 14)
   
Інші релізи
MutuLI 
Відео Гуртом - фільмокрай
Відео Гуртом - фільмокрай


З нами з: 08.03.09
Востаннє: 04.12.16
Повідомлень: 1249

2014-10-29 19:09  
Цитата:
Обов'язково вказувати назву фільму, яку йому дала студія озвучення. Якщо назва має декілька варіантів або релізер хоче дати свій, вони пишуться через знак "/" в наступній послідовності: Варіант української назви / Інший варіант української назви / Оригінальна назва / Інші варіанти в інших мовах. Послідовність українських назв довільна.

Приклад: Дітки в порядку / Діти в порядку / The Kids Are All Right / Wszystko w porzadku (2010)

Anonymous 







2014-10-29 19:12  
Коли я так зроблю, перестає працювати спойлер "Інші релізи" (там скрипт шукає по назві після першого слеша). Думаю, це не смертельно, якщо інша укр.назва буде в дужках.
omm 
Відео Гуртом - фільмокрай
Відео Гуртом - фільмокрай


З нами з: 12.06.12
Востаннє: 04.12.16
Повідомлень: 2066

2014-10-29 22:10  
Рік тому переглядав фільмографію Сіґала до фільму "Патріот" (після нього пішов відвертий шлак, за винятком хіба що "Наскрізних поранень"). Цей фільм найменше запам'ятався і сподобався.
ser.lisak 
Частий відвідувач


З нами з: 04.04.13
Востаннє: 03.12.16
Повідомлень: 28

2015-02-03 22:37  
Пыдкажіть де можна скачати фільми Сігала Українською та в AVI?
Anonymous 







2015-02-03 22:40  
ser.lisak, тут можна, бажано шукати за оригінальною назвою фільма.
Ваш часовий пояс: GMT + 2 Години

Нова тема   Відповісти