Завантажити та скачати торренти українською


Гонщик / Driven (2001) 720p Ukr/Eng | Sub Eng

Нові коментарі

Нова тема   Відповісти
Автор Повідомлення
Anonymous 







2014-10-26 14:51  
Гонщик / Driven (2001) 720p Ukr/Eng | Sub Eng



Оригінальний постер



Жанр: драма, спорт, бойовик
Країна: США, Канада, Австралія



Кінокомпанія: Franchise Pictures, Epsilon Motion Pictures, Trackform Film Productions, Champs Productions
Режисер: Ренні Харлін / Renny Harlin
Актори: Сильвестер Сталлоне / Sylvester Stallone, Берт Рейнольдс / Burt Reynolds, Кіп Пардью / Kip Pardue, Стейсі Едвардс / Stacy Edwards, Тіль Швайгер / Til Schweiger, Джина Гершон / Gina Gershon та інші

Сюжет:
Надзвичайно талановитий, але ще дуже молодий гонщик Джиммі Блай раптово починає втрачати "хист". Блай - зірка, яка сходить і бос його команди чітко розуміє, що терміново необхідний "досвідчений" фахівець-наставник, який не дасть кар'єрі Джиммі зійти нанівець. Цим фахівцем стає Джо Тенті – найбільш досвідчений гонщик і екс-чемпіон. Колись Тенті змушений був покинути світ гонок через нещасний випадок. Але тепер у Джо є унікальний шанс не тільки зробити юного Блая новим королем гонщиків, але й довести всім, на що ще здатний він сам.


Рейтинг MPAA: PG-13 - дітям до 13 років перегляд не бажаний
Вікова категорія: 12+

Тривалість: 01:56:49
Якість: 720p [CRiSC]
Відео:
кодек:
розмір кадру: 1280x534
бітрейт: 8300 кбіт/с

Аудіо # 1:
мова: українська
переклад: багатоголосий закадровий - Так Треба Продакшн
ролі озвучили: Сильвестер Сталлоне - Олег Стальчук, Берт Рейнольдс - Володимир Терещук, Дмитро Терещук і один жіночий голос
кодек: 2.0
бітрейт: 192 кбіт/с

Аудіо # 2:
мова: англійська
переклад: оригінал
кодек: 5.1
бітрейт: 1509 кбіт/с

Аудіо # 3:
мова: англійська
переклад: коментарі
кодек: 2.0
бітрейт: 192 кбіт/с

Субтитри:
мова: англійська
тип: програмні (м'які)
формат: *.srt

Збережено оригінальні розділи, як на Blu-ray.
MediaInfo
Код:
General
Unique ID                                : 188931857908061593433937935540463562955 (0x8E22F3C74563F9848639CB92E54F70CB)
Complete name                            : Driven (2001) [Ukr,Eng sub.Eng] 720p [Hurtom & HDClub].mkv
Format                                   : Matroska
Format version                           : Version 4 / Version 2
File size                                : 8.32 GiB
Duration                                 : 1h 57mn
Overall bit rate                         : 10.2 Mbps
Movie name                               : Гонщик / Driven (2001) 720p [Hurtom & HDClub]
Encoded date                             : UTC 2014-10-26 12:05:45
Writing application                      : mkvmerge v7.3.0 ('Nouages') 64bit built on Oct 22 2014 18:53:34
Writing library                          : libebml v1.3.0 + libmatroska v1.4.1
DURATION                                 : 01:55:05.940000000
NUMBER_OF_FRAMES                         : 1339
NUMBER_OF_BYTES                          : 50356
_STATISTICS_WRITING_APP                  : mkvmerge v7.3.0 ('Nouages') 64bit built on Oct 22 2014 18:53:34
_STATISTICS_WRITING_DATE_UTC             : 2014-10-26 12:05:45
_STATISTICS_TAGS                         : BPS DURATION NUMBER_OF_FRAMES NUMBER_OF_BYTES

Video
ID                                       : 1
Format                                   : AVC
Format/Info                              : Advanced Video Codec
Format profile                           : [email protected]
Format settings, CABAC                   : Yes
Format settings, ReFrames                : 12 frames
Codec ID                                 : V_MPEG4/ISO/AVC
Duration                                 : 1h 57mn
Bit rate                                 : 8 300 Kbps
Width                                    : 1 280 pixels
Height                                   : 534 pixels
Display aspect ratio                     : 2.40:1
Frame rate mode                          : Constant
Frame rate                               : 23.976 fps
Color space                              : YUV
Chroma subsampling                       : 4:2:0
Bit depth                                : 8 bits
Scan type                                : Progressive
Bits/(Pixel*Frame)                       : 0.506
Stream size                              : 6.60 GiB (79%)
Title                                    : Гонщик / Driven (2001) 720p [CRiSC]
Writing library                          : core 135 r2345kMod f0c1c53
Encoding settings                        : cabac=1 / ref=12 / deblock=1:-3:-3 / analyse=0x3:0x133 / me=umh / subme=11 / psy=1 / fade_compensate=0.00 / psy_rd=1.10:0.00 / mixed_ref=1 / me_range=64 / chroma_me=1 / trellis=2 / 8x8dct=1 / cqm=0 / deadzone=21,11 / fast_pskip=0 / chroma_qp_offset=-2 / threads=12 / lookahead_threads=2 / sliced_threads=0 / nr=0 / decimate=0 / interlaced=0 / bluray_compat=0 / constrained_intra=0 / bframes=9 / b_pyramid=2 / b_adapt=2 / b_bias=0 / direct=3 / weightb=1 / open_gop=0 / weightp=2 / keyint=250 / keyint_min=23 / scenecut=40 / intra_refresh=0 / rc_lookahead=40 / rc=2pass / mbtree=0 / bitrate=8300 / ratetol=1.0 / qcomp=0.65 / qpmin=0 / qpmax=69 / qpstep=4 / cplxblur=20.0 / qblur=0.5 / vbv_maxrate=50000 / vbv_bufsize=62500 / nal_hrd=none / ip_ratio=1.35 / pb_ratio=1.25 / aq=1:0.60
Language                                 : English
Default                                  : Yes
Forced                                   : No
Color primaries                          : BT.709
Transfer characteristics                 : BT.709
Matrix coefficients                      : BT.709
DURATION                                 : 01:56:49.086000000
NUMBER_OF_FRAMES                         : 168050
NUMBER_OF_BYTES                          : 7267363966
_STATISTICS_WRITING_APP                  : mkvmerge v7.3.0 ('Nouages') 64bit built on Oct 22 2014 18:53:34
_STATISTICS_WRITING_DATE_UTC             : 2014-10-26 12:05:45
_STATISTICS_TAGS                         : BPS DURATION NUMBER_OF_FRAMES NUMBER_OF_BYTES

Audio #1
ID                                       : 2
Format                                   : AC-3
Format/Info                              : Audio Coding 3
Mode extension                           : CM (complete main)
Format settings, Endianness              : Big
Codec ID                                 : A_AC3
Duration                                 : 1h 57mn
Bit rate mode                            : Constant
Bit rate                                 : 192 Kbps
Channel(s)                               : 2 channels
Channel positions                        : Front: L R
Sampling rate                            : 48.0 KHz
Bit depth                                : 16 bits
Compression mode                         : Lossy
Stream size                              : 161 MiB (2%)
Title                                    : MVO [NTN] 2.0 192 kbps [Hurtom-_oles]
Language                                 : Ukrainian
Default                                  : Yes
Forced                                   : No

Audio #2
ID                                       : 3
Format                                   :
Format/Info                              : Digital Theater Systems
Mode                                     : 16
Format settings, Endianness              : Big
Codec ID                                 : A_DTS
Duration                                 : 1h 57mn
Bit rate mode                            : Constant
Bit rate                                 : 1 509 Kbps
Channel(s)                               : 6 channels
Channel positions                        : Front: L C R, Side: L R, LFE
Sampling rate                            : 48.0 KHz
Bit depth                                : 24 bits
Compression mode                         : Lossy
Stream size                              : 1.23 GiB (15%)
Title                                    : Original 5.1 1509 kbps
Language                                 : English
Default                                  : No
Forced                                   : No

Audio #3
ID                                       : 4
Format                                   : AC-3
Format/Info                              : Audio Coding 3
Format profile                           : Dolby Digital
Mode extension                           : CM (complete main)
Format settings, Endianness              : Big
Codec ID                                 : A_AC3
Duration                                 : 1h 57mn
Bit rate mode                            : Constant
Bit rate                                 : 192 Kbps
Channel(s)                               : 2 channels
Channel positions                        : Front: L R
Sampling rate                            : 48.0 KHz
Bit depth                                : 16 bits
Compression mode                         : Lossy
Stream size                              : 161 MiB (2%)
Title                                    : Commentary
Language                                 : English
Default                                  : No
Forced                                   : No

Text
ID                                       : 5
Format                                   : UTF-8
Codec ID                                 : S_TEXT/UTF8
Codec ID/Info                            : UTF-8 Plain Text
Language                                 : English
Default                                  : No
Forced                                   : No

Menu
00:00:00.000                             : en:00:00:00.000
00:04:42.282                             : en:00:04:42.282
00:06:30.265                             : en:00:06:30.265
00:10:26.626                             : en:00:10:26.626
00:13:11.666                             : en:00:13:11.666
00:15:40.231                             : en:00:15:40.231
00:18:02.123                             : en:00:18:02.123
00:22:24.051                             : en:00:22:24.051
00:26:55.447                             : en:00:26:55.447
00:30:27.159                             : en:00:30:27.159
00:33:35.722                             : en:00:33:35.722
00:38:22.842                             : en:00:38:22.842
00:40:22.420                             : en:00:40:22.420
00:45:10.291                             : en:00:45:10.291
00:49:00.396                             : en:00:49:00.396
00:52:40.407                             : en:00:52:40.407
00:56:18.750                             : en:00:56:18.750
00:58:59.453                             : en:00:58:59.453
01:02:13.229                             : en:01:02:13.229
01:04:33.703                             : en:01:04:33.703
01:06:38.161                             : en:01:06:38.161
01:09:34.670                             : en:01:09:34.670
01:13:44.879                             : en:01:13:44.879
01:16:07.980                             : en:01:16:07.980
01:20:47.676                             : en:01:20:47.676
01:25:52.522                             : en:01:25:52.522
01:28:05.947                             : en:01:28:05.947
01:32:24.581                             : en:01:32:24.581
01:36:24.696                             : en:01:36:24.696
01:38:30.363                             : en:01:38:30.363
01:40:57.009                             : en:01:40:57.009
01:44:15.541                             : en:01:44:15.541
01:47:01.206                             : en:01:47:01.206
01:49:37.571                             : en:01:49:37.571





Джерела та подяки: &
ріп відео, оригінальні звук та субтитри - CRiSC (HDbits), madoff (HDClub); українська доріжка - _oles - зведення, Romario_O, drakon87 - запис з ТБ; українізований постер - thefir; фільмографії акторів та інформація про озвучення - Віктор (всі - Гуртом).


ЗАЛИШАЙТЕСЬ ЯКОМОГА ДОВШЕ НА РОЗДАЧІ!

СКАЧАВ САМ - ДАЙ СКАЧАТИ ІНШИМ


Срібний реліз (на рейтинг впливає 50% завантаженого)
 Трекер:    Зареєстрований   

Завантажити / скачати фільм українською



відео для новачків



 Зареєстрований:   2014-10-26 14:51
 Розмір:   8.32 GB 
 Оцінка фільму:   3/10 (Голосів: 15)
   
Інші релізи
   Гонщик / Driven (2001) Ukr/Eng | Sub Eng igor911  2 / 0   1.97 GB   2015-06-22 12:48 
boroznaya 
VIP


З нами з: 02.11.12
Востаннє: 09.12.16
Повідомлень: 1885

2015-06-07 19:59  
Можливо хтось зробить ріп на 2.18 Гб з блюрика?
Anonymous 







2015-06-22 12:52  
boroznaya, ось в avi http://toloka.to/t66569
Ваш часовий пояс: GMT + 2 Години

Нова тема   Відповісти