Завантажити та скачати торренти українською


Синдбад і око тигра / Sinbad and the Eye of the Tiger (1977) 720p Ukr/Eng | Sub Eng

Нові коментарі

Нова тема   Відповісти
Автор Повідомлення
Anonymous 







2014-10-26 11:36  
Синдбад і око тигра / Sinbad and the Eye of the Tiger (1977) 720p Ukr/Eng | Sub Eng

Синдбад і око тигра / Sinbad and the Eye of the Tiger (1977) 720p Ukr/Eng | Sub Eng
Оригінальна обкладинка


повнорозмірне зображення відкриється по кліку (з натиснутим CTRL чи кліком середньою кнопкою мишки - у новій вкладці)

Жанр: фентезі, бойовик, пригодницький, сімейний
Країна: Велика Британія



Кінокомпанія: Columbia Pictures Corporation, Andor Films
Режисер: Сем Венемейкер / Sam Wanamaker
Актори: Патрік Вейн / Patrick Wayne, Тарін Повер / Taryn Power, Марґарет Вайтінґ / Margaret Whiting, Джейн Сеймур / Jane Seymour та інші

Сюжет:
На долю легендарного Синдбада випало чимало пригод. Але Синдбад і помислити не міг, що найнебезпечнішим з них стане... весілля принцеси Фарри! Одруження не відбудеться без благословення брата Фарри, принца Касіма, а Касім став жертвою злих чар - відьма Зенобія перетворила принца на бабуїна.
Королева Зенобія зробила це для того, щоб каліфом зміг стати її син принц Рафі. Синдбад вирішує відновити справедливість і вступає у двобій з чарівницею, яка час від часу перетворюється на дику тигрицю.


Рейтинг MPAA: G - нема вікових обмежень
Вікова категорія: 0+

Тривалість: 01:52:59
Якість: 720p [SbR]
Відео:
кодек:
розмір кадру: 1280x692
бітрейт: 11500 кбіт/с

Аудіо # 1:
мова: українська
переклад: багатоголосий закадровий - Інтер
ролі озвучили: Владислав Пупков, Патрік Вейн/Синдбад — Олег Лепенець, Олесь Гімбаржевський
кодек: 2.0
бітрейт: 192 кбіт/с

Аудіо # 2:
мова: англійська
переклад: оригінал
кодек: 5.1
бітрейт: 640 кбіт/с

Субтитри:
мова: англійська (повні, SDH)
тип: програмні (м'які)
формат: *.srt

Збережено оригінальні розділи, як на Blu-ray.
MediaInfo
Код:
General
Unique ID                                : 244854055708014980955264571738858729149 (0xB8352D008698FE8E8F2D05A21CD42EBD)
Complete name                            : Sinbad and the Eye of the Tiger (1977) [Ukr,Eng sub.Eng] 720p [Hurtom & HDClub].mkv
Format                                   : Matroska
Format version                           : Version 4 / Version 2
File size                                : 9.74 GiB
Duration                                 : 1h 52mn
Overall bit rate                         : 12.3 Mbps
Movie name                               : Синдбад і око тигра / Sinbad and the Eye of the Tiger (1977) 720p [Hurtom & HDClub]
Encoded date                             : UTC 2014-10-26 08:30:25
Writing application                      : mkvmerge v7.3.0 ('Nouages') 64bit built on Oct 22 2014 18:53:34
Writing library                          : libebml v1.3.0 + libmatroska v1.4.1
DURATION                                 : 01:50:58.485000000
NUMBER_OF_FRAMES                         : 981
NUMBER_OF_BYTES                          : 35314
_STATISTICS_WRITING_APP                  : mkvmerge v7.3.0 ('Nouages') 64bit built on Oct 22 2014 18:53:34
_STATISTICS_WRITING_DATE_UTC             : 2014-10-26 08:30:25
_STATISTICS_TAGS                         : BPS DURATION NUMBER_OF_FRAMES NUMBER_OF_BYTES

Video
ID                                       : 1
Format                                   : AVC
Format/Info                              : Advanced Video Codec
Format profile                           : [email protected]
Format settings, CABAC                   : Yes
Format settings, ReFrames                : 9 frames
Codec ID                                 : V_MPEG4/ISO/AVC
Duration                                 : 1h 52mn
Bit rate                                 : 11.5 Mbps
Width                                    : 1 280 pixels
Height                                   : 692 pixels
Display aspect ratio                     : 1.85:1
Frame rate mode                          : Constant
Frame rate                               : 23.976 fps
Color space                              : YUV
Chroma subsampling                       : 4:2:0
Bit depth                                : 8 bits
Scan type                                : Progressive
Bits/(Pixel*Frame)                       : 0.542
Stream size                              : 8.88 GiB (91%)
Title                                    : Синдбад і око тигра / Sinbad and the Eye of the Tiger / Синбад и Глаз Тигра (1977) 720p [SbR]
Writing library                          : core 142 r2431+42 c69a006 tMod [[email protected] X86_64]
Encoding settings                        : cabac=1 / ref=9 / deblock=1:-3:-3 / analyse=0x3:0x133 / me=esa / subme=9 / psy=1 / fade_compensate=0.00 / psy_rd=1.00:0.25 / mixed_ref=1 / me_range=24 / chroma_me=1 / trellis=2 / 8x8dct=1 / cqm=0 / deadzone=21,11 / fast_pskip=0 / chroma_qp_offset=-4 / threads=6 / lookahead_threads=1 / sliced_threads=0 / nr=0 / decimate=1 / interlaced=0 / bluray_compat=0 / constrained_intra=0 / fgo=0 / bframes=12 / b_pyramid=2 / b_adapt=2 / b_bias=0 / direct=3 / weightb=1 / open_gop=0 / weightp=2 / keyint=250 / keyint_min=23 / scenecut=40 / intra_refresh=0 / rc_lookahead=40 / rc=2pass / mbtree=0 / bitrate=11500 / ratetol=1.0 / qcomp=0.70 / qpmin=0:0:0 / qpmax=69:69:69 / qpstep=4 / cplxblur=20.0 / qblur=0.5 / vbv_maxrate=62500 / vbv_bufsize=78125 / nal_hrd=none / filler=0 / ip_ratio=1.10 / pb_ratio=1.10 / aq=1:0.60 / aq-sensitivity=10.00 / aq-factor=1.00:1.00:1.00 / aq2=0 / aq3=0
Language                                 : English
Default                                  : Yes
Forced                                   : No
Matrix coefficients                      : BT.709
DURATION                                 : 01:52:59.732000000
NUMBER_OF_FRAMES                         : 162551
NUMBER_OF_BYTES                          : 9745942841
_STATISTICS_WRITING_APP                  : mkvmerge v7.3.0 ('Nouages') 64bit built on Oct 22 2014 18:53:34
_STATISTICS_WRITING_DATE_UTC             : 2014-10-26 08:30:25
_STATISTICS_TAGS                         : BPS DURATION NUMBER_OF_FRAMES NUMBER_OF_BYTES

Audio #1
ID                                       : 2
Format                                   : AC-3
Format/Info                              : Audio Coding 3
Mode extension                           : CM (complete main)
Format settings, Endianness              : Big
Codec ID                                 : A_AC3
Duration                                 : 1h 52mn
Bit rate mode                            : Constant
Bit rate                                 : 192 Kbps
Channel(s)                               : 2 channels
Channel positions                        : Front: L R
Sampling rate                            : 48.0 KHz
Bit depth                                : 16 bits
Compression mode                         : Lossy
Stream size                              : 155 MiB (2%)
Title                                    : MVO [Inter] 2.0 192 kbps [Hurtom-robotron005]
Language                                 : Ukrainian
Default                                  : Yes
Forced                                   : No

Audio #2
ID                                       : 3
Format                                   : AC-3
Format/Info                              : Audio Coding 3
Mode extension                           : CM (complete main)
Format settings, Endianness              : Big
Codec ID                                 : A_AC3
Duration                                 : 1h 52mn
Bit rate mode                            : Constant
Bit rate                                 : 640 Kbps
Channel(s)                               : 6 channels
Channel positions                        : Front: L C R, Side: L R, LFE
Sampling rate                            : 48.0 KHz
Bit depth                                : 16 bits
Compression mode                         : Lossy
Stream size                              : 517 MiB (5%)
Title                                    : Original 5.1 640 kbps
Language                                 : English
Default                                  : No
Forced                                   : No

Text #1
ID                                       : 4
Format                                   : UTF-8
Codec ID                                 : S_TEXT/UTF8
Codec ID/Info                            : UTF-8 Plain Text
Title                                    : Eng full
Language                                 : English
Default                                  : No
Forced                                   : No

Text #2
ID                                       : 5
Format                                   : UTF-8
Codec ID                                 : S_TEXT/UTF8
Codec ID/Info                            : UTF-8 Plain Text
Title                                    : Eng SDH
Language                                 : English
Default                                  : No
Forced                                   : No

Menu
00:00:00.000                             : en:00:00:00.000
00:05:49.182                             : en:00:05:49.182
00:13:30.309                             : en:00:13:30.309
00:23:15.560                             : en:00:23:15.560
00:31:28.636                             : en:00:31:28.636
00:40:57.413                             : en:00:40:57.413
00:51:02.225                             : en:00:51:02.225
01:02:41.299                             : en:01:02:41.299
01:15:43.664                             : en:01:15:43.664
01:27:07.305                             : en:01:27:07.305
01:37:20.709                             : en:01:37:20.709
01:51:59.671                             : en:01:51:59.671




Джерела та подяки: &
ріп відео, оригінальні звук та субтитри - SbR (HDbits), delia (HDClub); українські доріжки - robotron005 - зведення та запис з ТБ; інформація про озвучення - Віктор, українізація постера - Drobik81 (всі - Гуртом).

Золота подорож Синдбада / The Golden Voyage of Sinbad (1973) 720p 2xUkr/Eng | Sub Eng
Усі фільми про Синдбада на Толоці


ЗАЛИШАЙТЕСЬ ЯКОМОГА ДОВШЕ НА РОЗДАЧІ!

СКАЧАВ САМ - ДАЙ СКАЧАТИ ІНШИМ


Срібний реліз (на рейтинг впливає 50% завантаженого)
 Трекер:    Зареєстрований   

Завантажити / скачати фільм українською



відео для новачків



 Зареєстрований:   2014-10-26 11:36
 Розмір:   9.74 GB 
 Оцінка фільму:   4.3/10 (Голосів: 16)
   
Інші релізи
Ваш часовий пояс: GMT + 2 Години

Нова тема   Відповісти