Завантажити та скачати торренти українською


Золота подорож Синдбада / The Golden Voyage of Sinbad (1973) 720p 2xUkr/Eng | Sub Eng

Нові коментарі

Нова тема   Відповісти
Автор Повідомлення
Anonymous 







2014-10-25 20:41  
Золота подорож Синдбада / The Golden Voyage of Sinbad (1973) 720p 2xUkr/Eng | Sub Eng

Золота подорож Синдбада / The Golden Voyage of Sinbad (1973) 720p 2xUkr/Eng | Sub Eng
Оригінальна обкладинка


Жанр: фентезі, бойовик, пригодницький, сімейний
Країна: США



Кінокомпанія: Columbia Pictures Corporation, Ameran Films, Morningside Productions
Режисер: Ґордон Гесслер / Gordon Hessler
Актори: Джон Філіп Лов / John Phillip Law, Каролайн Монро / Caroline Munro, Том Бекер / Tom Baker, Дуґлас Вілмер / Douglas Wilmer та інші

Сюжет:
Про подвиги знаменитого мореплавця і шукача пригод Сходу Синдбада складено чимало легенд. В одній з них Синдбад стає власником золотої таблички, частини магічної карти, загадку якої йому кортить розгадати.
На шляху до мети герой та його команда зустрінуть багато небезпек: шестируку живу статую, гігантського грифона, одноокого кентавра. Жорстокі бурі, великі дива, а також зла воля чаклуна Кура, відзначать собою мандрівку мореплавця. Яка ж нагорода чекає героя у кінці славного, повного великих пригод шляху?


Рейтинг MPAA: G - нема вікових обмежень
Вікова категорія: 0+

Тривалість: 01:44:59
Якість: 720p [SbR]
Відео:
кодек:
розмір кадру: 1194x720
бітрейт: 11,8 Мбіт/с [crf=16.75]

Аудіо # 1:
мова: українська
переклад: двоголосий закадровий - Студія 1+1
кодек: 2.0
бітрейт: 192 кбіт/с
Інформація про озвучення
Озвучено на Студії 1+1
Переклад: Аліна Гаєвська
Літературний редактор і режисер: Ольга Чернілевська
Звукорежисер: Сергій Вачі
Ролі озвучили: Олесь Гімбаржевський і Тетяна Антонова
Аудіо # 2:
мова: українська
переклад: багатоголосий закадровий - Так Треба Продакшн
ролі озвучили: Ярослав Чорненький, Олег Стальчук, Інна Капінос і мабуть ще один жіночий голос
кодек: 2.0
бітрейт: 192 кбіт/с

Аудіо # 3:
мова: англійська
переклад: оригінал
кодек: 5.1
бітрейт: 640 кбіт/с

Субтитри:
мова: англійська (повні, SDH)
тип: програмні (м'які)
формат: *.srt

Збережено оригінальні розділи, як на Blu-ray.
MediaInfo
Код:
General
Unique ID                                : 195797733825622322284855577133047979931 (0x934D4598BC04F076B199DDBE63759F9B)
Complete name                            : The Golden Voyage of Sinbad (1973) [2xUkr,Eng sub.Eng] 720p [Hurtom & HDClub].mkv
Format                                   : Matroska
Format version                           : Version 4 / Version 2
File size                                : 9.58 GiB
Duration                                 : 1h 44mn
Overall bit rate                         : 13.1 Mbps
Movie name                               : Золота подорож Синдбада / The Golden Voyage of Sinbad (1973) 720p [Hurtom & HDClub]
Encoded date                             : UTC 2014-10-25 11:55:07
Writing application                      : mkvmerge v7.3.0 ('Nouages') 64bit built on Oct 22 2014 18:53:34
Writing library                          : libebml v1.3.0 + libmatroska v1.4.1
DURATION                                 : 01:42:38.735000000
NUMBER_OF_FRAMES                         : 760
NUMBER_OF_BYTES                          : 21040
_STATISTICS_WRITING_APP                  : mkvmerge v7.3.0 ('Nouages') 64bit built on Oct 22 2014 18:53:34
_STATISTICS_WRITING_DATE_UTC             : 2014-10-25 11:55:07
_STATISTICS_TAGS                         : BPS DURATION NUMBER_OF_FRAMES NUMBER_OF_BYTES

Video
ID                                       : 1
Format                                   : AVC
Format/Info                              : Advanced Video Codec
Format profile                           : [email protected]
Format settings, CABAC                   : Yes
Format settings, ReFrames                : 9 frames
Codec ID                                 : V_MPEG4/ISO/AVC
Duration                                 : 1h 44mn
Bit rate                                 : 11.8 Mbps
Width                                    : 1 194 pixels
Height                                   : 720 pixels
Display aspect ratio                     : 1.658
Frame rate mode                          : Constant
Frame rate                               : 23.976 fps
Color space                              : YUV
Chroma subsampling                       : 4:2:0
Bit depth                                : 8 bits
Scan type                                : Progressive
Bits/(Pixel*Frame)                       : 0.571
Stream size                              : 8.64 GiB (90%)
Title                                    : Золота подорож Синдбада / The Golden Voyage of Sinbad / Золотое путешествие Синдбада (1973) 720p [SbR]
Writing library                          : core 142 r2431+42 c69a006 tMod [[email protected] X86_64]
Encoding settings                        : cabac=1 / ref=9 / deblock=1:-3:-3 / analyse=0x3:0x133 / me=tesa / subme=9 / psy=1 / fade_compensate=0.00 / psy_rd=0.90:0.05 / mixed_ref=1 / me_range=24 / chroma_me=1 / trellis=2 / 8x8dct=1 / cqm=0 / deadzone=21,11 / fast_pskip=0 / chroma_qp_offset=-3 / threads=6 / lookahead_threads=1 / sliced_threads=0 / nr=0 / decimate=1 / interlaced=0 / bluray_compat=0 / constrained_intra=0 / fgo=0 / bframes=9 / b_pyramid=2 / b_adapt=2 / b_bias=0 / direct=3 / weightb=1 / open_gop=0 / weightp=2 / keyint=250 / keyint_min=23 / scenecut=40 / intra_refresh=0 / rc_lookahead=60 / rc=crf / mbtree=0 / crf=16.7500 / qcomp=0.65 / qpmin=0:0:0 / qpmax=69:69:69 / qpstep=4 / vbv_maxrate=62500 / vbv_bufsize=78125 / crf_max=0.0 / nal_hrd=none / filler=0 / ip_ratio=1.30 / pb_ratio=1.20 / aq=1:0.60 / aq-sensitivity=10.00 / aq-factor=1.00:1.00:1.00 / aq2=0 / aq3=0
Language                                 : English
Default                                  : Yes
Forced                                   : No
Matrix coefficients                      : BT.709
DURATION                                 : 01:44:59.252000000
NUMBER_OF_FRAMES                         : 151031
NUMBER_OF_BYTES                          : 9477666308
_STATISTICS_WRITING_APP                  : mkvmerge v7.3.0 ('Nouages') 64bit built on Oct 22 2014 18:53:34
_STATISTICS_WRITING_DATE_UTC             : 2014-10-25 11:55:07
_STATISTICS_TAGS                         : BPS DURATION NUMBER_OF_FRAMES NUMBER_OF_BYTES

Audio #1
ID                                       : 2
Format                                   : AC-3
Format/Info                              : Audio Coding 3
Mode extension                           : CM (complete main)
Format settings, Endianness              : Big
Codec ID                                 : A_AC3
Duration                                 : 1h 44mn
Bit rate mode                            : Constant
Bit rate                                 : 192 Kbps
Channel(s)                               : 2 channels
Channel positions                        : Front: L R
Sampling rate                            : 48.0 KHz
Bit depth                                : 16 bits
Compression mode                         : Lossy
Stream size                              : 144 MiB (1%)
Title                                    : DVO [1+1]  2.0 192 kbps [Hurtom-robotron005]
Language                                 : Ukrainian
Default                                  : Yes
Forced                                   : No

Audio #2
ID                                       : 3
Format                                   : AC-3
Format/Info                              : Audio Coding 3
Mode extension                           : CM (complete main)
Format settings, Endianness              : Big
Codec ID                                 : A_AC3
Duration                                 : 1h 44mn
Bit rate mode                            : Constant
Bit rate                                 : 192 Kbps
Channel(s)                               : 2 channels
Channel positions                        : Front: L R
Sampling rate                            : 48.0 KHz
Bit depth                                : 16 bits
Compression mode                         : Lossy
Stream size                              : 144 MiB (1%)
Title                                    : MVO [Inter] 2.0 192 kbps [Hurtom-robotron005]
Language                                 : Ukrainian
Default                                  : No
Forced                                   : No

Audio #3
ID                                       : 4
Format                                   : AC-3
Format/Info                              : Audio Coding 3
Mode extension                           : CM (complete main)
Format settings, Endianness              : Big
Codec ID                                 : A_AC3
Duration                                 : 1h 44mn
Bit rate mode                            : Constant
Bit rate                                 : 640 Kbps
Channel(s)                               : 6 channels
Channel positions                        : Front: L C R, Side: L R, LFE
Sampling rate                            : 48.0 KHz
Bit depth                                : 16 bits
Compression mode                         : Lossy
Stream size                              : 481 MiB (5%)
Title                                    : Original 5.1 640 kbps
Language                                 : English
Default                                  : No
Forced                                   : No

Text #1
ID                                       : 5
Format                                   : UTF-8
Codec ID                                 : S_TEXT/UTF8
Codec ID/Info                            : UTF-8 Plain Text
Title                                    : Eng full
Language                                 : English
Default                                  : No
Forced                                   : No

Text #2
ID                                       : 6
Format                                   : UTF-8
Codec ID                                 : S_TEXT/UTF8
Codec ID/Info                            : UTF-8 Plain Text
Title                                    : Eng SDH
Language                                 : English
Default                                  : No
Forced                                   : No

Menu
00:00:00.000                             : en:00:00:00.000
00:09:18.266                             : en:00:09:18.266
00:21:48.474                             : en:00:21:48.474
00:34:39.995                             : en:00:34:39.995
00:45:32.563                             : en:00:45:32.563
00:54:55.292                             : en:00:54:55.292
01:02:24.991                             : en:01:02:24.991
01:08:11.713                             : en:01:08:11.713
01:18:27.202                             : en:01:18:27.202
01:25:09.688                             : en:01:25:09.688
01:32:09.023                             : en:01:32:09.023
01:44:25.801                             : en:01:44:25.801




Джерела та подяки: &
ріп відео, оригінальні звук та субтитри - SbR (HDbits), delia (HDClub); українські доріжки - robotron005 - зведення (1,2), запис з ТБ (1), olgaya, dvorsky - запис з ТБ (2); інформація про озвучення - Віктор, українізація постера - Drobik81 (всі - Гуртом).

Синдбад і око тигра / Sinbad and the Eye of the Tiger (1977) 720p Ukr/Eng | Sub Eng


Усі фільми про Синдбада на Толоці

ЗАЛИШАЙТЕСЬ ЯКОМОГА ДОВШЕ НА РОЗДАЧІ!

СКАЧАВ САМ - ДАЙ СКАЧАТИ ІНШИМ


Срібний реліз (на рейтинг впливає 50% завантаженого)
 Трекер:    Зареєстрований   

Завантажити / скачати фільм українською



відео для новачків



 Зареєстрований:   2014-10-25 20:41
 Розмір:   9.58 GB 
 Оцінка фільму:   3.8/10 (Голосів: 15)
   
Інші релізи
Ваш часовий пояс: GMT + 2 Години

Нова тема   Відповісти