Завантажити та скачати торренти українською


Піджак / The Jacket (2005) 720p 2xUkr/Eng | Sub Eng

Нові коментарі

Нова тема   Відповісти
Автор Повідомлення
braveboy 
Відео Гуртом - команда HD
Відео Гуртом - команда HD


З нами з: 15.06.10
Востаннє: 29.10.16
Повідомлень: 958

2014-10-25 05:02  

Піджак / The Jacket (2005) 720p 2xUkr/Eng | Sub Eng


Піджак / The Jacket (2005) 720p 2xUkr/Eng | Sub Eng


«I was 27 years old the first time I died.»


Жанр: фантастика, трилер, фентезі
Країна: Німеччина, США

Кінокомпанія: 2929 Productions | Mandalay Pictures | Rising Star | Section Eight Ltd. | VIP 2 Medienfonds | VIP 3 Medienfonds | Warner Independent Pictures
Режисер: Джон Мейбері
Актори: Едріан Броуді, Кіра Найтлі, Кріс Крістофферсон, Дженніфер Джейсон Лі, Келлі Лінч, Бред Ренфро, Деніел Крейг, Стівен Макінтош, Брендон Койл, Маккензі Філіпс

Сюжет:
Ветерана війни Джека Старкса, страждаючого від періодичних нападів амнезії, звинувачують у вбивстві і поміщають в психіатричну клініку, де місцевий доктор призначає йому інтенсивний курс експериментальних препаратів. Але лікування дає дивний ефект: Джек несподівано бачить майбутнє і дізнається, що він буде убитий невідомим через декілька днів.


Тривалість: 01:42:54
Якість: 720p
Відео:
кодек:
розмір кадру: 1280 х 528
бітрейт: 6209 кб/с

Аудіо # 1:
мова: українська
переклад: багатоголосий закадровий |К1|
кодек: 5.1
бітрейт: 448 кб/с

Аудіо # 2:
мова: українська
переклад: двоголосий закадровий |Кіно|
кодек: 5.1
бітрейт: 384 кб/с

Аудіо # 3:
мова: англійська
переклад: оригінал
кодек: 5.1
бітрейт: 1509 кб/с


Джерело озвучення:
студією "Так Треба Продакшн" (запис звуку з телеканалу "К1") та студією "Старий Майстер" (запис звуку з телеканалу "Кіно")

Субтитри:
мова: англійська
тип: програмні (м'які)
формат: *.srt
MediaInfo
Video
ID : 1
Format : AVC
Format/Info : Advanced Video Codec
Format profile : [email protected]
Format settings, CABAC : Yes
Format settings, ReFrames : 12 frames
Codec ID : V_MPEG4/ISO/AVC
Duration : 1h 42mn
Bit rate : 6 209 Kbps
Width : 1 280 pixels
Height : 528 pixels
Display aspect ratio : 2.40:1
Frame rate mode : Constant
Frame rate : 23.976 fps
Color space : YUV
Chroma subsampling : 4:2:0
Bit depth : 8 bits
Scan type : Progressive
Bits/(Pixel*Frame) : 0.383
Stream size : 4.46 GiB (71%)
Title : The Jacket (2005) 720p
Writing library : core 116 r2074kMod 2641b9e
Encoding settings : cabac=1 / ref=12 / deblock=1:-2:-2 / analyse=0x3:0x113 / me=umh / subme=11 / psy=1 / fade_compensate=0.00 / psy_rd=0.95:0.05 / mixed_ref=1 / me_range=32 / chroma_me=1 / trellis=2 / 8x8dct=1 / cqm=0 / deadzone=21,11 / fast_pskip=0 / chroma_qp_offset=-4 / threads=6 / sliced_threads=0 / nr=0 / decimate=1 / interlaced=0 / bluray_compat=0 / constrained_intra=0 / bframes=12 / b_pyramid=2 / b_adapt=2 / b_bias=0 / direct=3 / weightb=1 / open_gop=0 / weightp=2 / keyint=250 / keyint_min=23 / scenecut=40 / intra_refresh=0 / rc_lookahead=60 / rc=crf / mbtree=0 / crf=17.5000 / qcomp=0.60 / qpmin=0 / qpmax=69 / qpstep=4 / vbv_maxrate=50000 / vbv_bufsize=62500 / crf_max=0.0 / nal_hrd=none / ip_ratio=1.40 / pb_ratio=1.30 / aq=3:0.90
Language : English
Default : Yes
Forced : No
DURATION : 01:42:55.128000000
NUMBER_OF_FRAMES : 148055
NUMBER_OF_BYTES : 4924729707
_STATISTICS_WRITING_APP : mkvmerge v7.3.0 ('Nouages') 64bit built on Oct 22 2014 18:53:34
_STATISTICS_WRITING_DATE_UTC : 2014-10-25 02:29:49
_STATISTICS_TAGS : BPS DURATION NUMBER_OF_FRAMES NUMBER_OF_BYTES

Audio #1
ID : 2
Format : AC-3
Format/Info : Audio Coding 3
Mode extension : CM (complete main)
Format settings, Endianness : Big
Codec ID : A_AC3
Duration : 1h 42mn
Bit rate mode : Constant
Bit rate : 448 Kbps
Channel(s) : 6 channels
Channel positions : Front: L C R, Side: L R, LFE
Sampling rate : 48.0 KHz
Bit depth : 16 bits
Compression mode : Lossy
Stream size : 330 MiB (5%)
Title : 5.1 @ 448 kbps [K1]
Language : Ukrainian
Default : Yes
Forced : No

Audio #2
ID : 3
Format : AC-3
Format/Info : Audio Coding 3
Mode extension : CM (complete main)
Format settings, Endianness : Big
Codec ID : A_AC3
Duration : 1h 42mn
Bit rate mode : Constant
Bit rate : 384 Kbps
Channel(s) : 6 channels
Channel positions : Front: L C R, Side: L R, LFE
Sampling rate : 48.0 KHz
Bit depth : 16 bits
Compression mode : Lossy
Stream size : 283 MiB (4%)
Title : 5.1 @ 384 kbps [KINO]
Language : Ukrainian
Default : No
Forced : No

Audio #3
ID : 4
Format :
Format/Info : Digital Theater Systems
Mode : 16
Format settings, Endianness : Big
Codec ID : A_DTS
Duration : 1h 42mn
Bit rate mode : Constant
Bit rate : 1 509 Kbps
Channel(s) : 6 channels
Channel positions : Front: L C R, Side: L R, LFE
Sampling rate : 48.0 KHz
Bit depth : 24 bits
Compression mode : Lossy
Stream size : 1.08 GiB (17%)
Title : 5.1 @ 1536 kbps
Language : English
Default : No
Forced : No

Text
ID : 5
Format : UTF-8
Codec ID : S_TEXT/UTF8
Codec ID/Info : UTF-8 Plain Text
Title : Full
Language : English
Default : No
Forced : No

Menu
00:00:00.000 : en:First Time I Died
00:03:44.599 : en:Roadside Aid
00:07:10.805 : en:Committed
00:12:29.248 : en:Morgue Locker Visions
00:16:41.417 : en:Meeting MacKenzie
00:19:28.584 : en:Round Two
00:22:50.828 : en:Christmas Eve With Jackie
00:27:10.212 : en:Snooping
00:30:38.378 : en:Don't You Remember Me?
00:35:53.360 : en:Not a Lab Animal
00:38:28.806 : en:Where Medicine Leaves Off
00:43:26.813 : en:Different Person
00:46:23.406 : en:Giving Becker an Itch
00:51:16.991 : en:The Crazy One
00:56:20.627 : en:Head Trauma
00:59:24.728 : en:How Do You Know?
01:01:49.539 : en:His Own Grave
01:04:44.464 : en:Who Wouldn't Be Nervous?
01:09:45.723 : en:Seeing a Ghost
01:15:02.289 : en:We Haunt You
01:17:59.091 : en:Breakthrough
01:21:42.314 : en:Visiting Jean and Jackie
01:27:48.513 : en:Life After Death
01:32:45.185 : en:Better Now
01:35:29.724 : en:End Credits
Скріншоти



Джерело:


 Трекер:    Зареєстрований   

Завантажити / скачати фільм українською



відео для новачків



 Зареєстрований:   2014-10-25 05:02
 Розмір:   6.27 GB 
 Оцінка фільму:   9.4/10 (Голосів: 18)
   
Інші релізи
   Піджак / The Jacket (2005) 2xUkr/Eng | Sub Eng Romario_O  12 / 1   2.46 GB   2012-12-30 18:22 
   Піджак / The Jacket (2005) AVC Ukr/Eng | Sub Eng DеLight  4 / 0   2.18 GB   2012-09-23 13:41 
Virake 
Localize Team
Localize Team


З нами з: 07.07.09
Востаннє: 09.12.16
Повідомлень: 4070

2014-10-25 08:02  
ось це класний фільм.
Virake 
Localize Team
Localize Team


З нами з: 07.07.09
Востаннє: 09.12.16
Повідомлень: 4070

2014-10-25 13:00  
прохання роздати
pohgejib 
VIP


З нами з: 06.06.08
Востаннє: 26.11.16
Повідомлень: 362

2014-11-21 21:39  
фільм який в свій час сильно мене вразив. як на мене недооціненний. однозначно дивитися...
lcds 
Свій


З нами з: 08.07.13
Востаннє: 02.12.16
Повідомлень: 111

2014-11-22 16:58  
Потужний фільм ! Дякую за реліз.
strannikosho_trek 
Новенький


З нами з: 29.05.14
Востаннє: 09.12.16
Повідомлень: 15

2014-12-07 14:15  
Прекрасний фільм, гарна гра акторів. Рекомендую.
Ваш часовий пояс: GMT + 2 Години

Нова тема   Відповісти