Завантажити та скачати торренти українською


Не впіймали - не злодій / Inside Man (2006) 720p 2xUkr/Eng | Sub Eng

Нові коментарі

Нова тема   Відповісти
Автор Повідомлення
Anonymous 







2014-10-20 21:51  
Не впіймали - не злодій / Inside Man (2006) 720p 2xUkr/Eng | Sub Eng



Альтернативні постери





Жанр: трилер, драма, кримінальний
Країна: США



Кінокомпанія: Universal Pictures, Imagine Entertainment, 40 Acres & A Mule Filmworks, GH Two
Режисер: Спайк Лі / Spike Lee
Актори: Дензел Вашинґтон / Denzel Washington, Клайв Овен / Clive Owen, Джоді Фостер / Jodie Foster, Крістофер Пламмер / Christopher Plummer, Віллем Дефо / Willem Dafoe, Чиветел Еджиофор / Chiwetel Ejiofor, Карлос Андрес Ґомес / Carlos Andrés Gómez, Кім Директор / Kim Director, Джеймс Рансон / James Ransone, Берні Рашель / Bernie Rachelle та інші.

Сюжет:
Посеред білого дня троє перевдягнених у малярів бандитів захоплюють великий банк в центрі Нью-Йорка. На місце події прибуває досвідчений поліцейський, проте переговори заходять у глухий кут: злочинці висувають суперечливі вимоги...


Рейтинг MPAA: R - особам до 17 років обов'язкова присутність батьків або дорослого опікуна
Вікова категорія: 14+

Тривалість: 02:08:36
Якість: 720p
Відео:
кодек:
розмір кадру: 1280x544
бітрейт: 4325 кбіт/с [crf=18]

Аудіо # 1:
мова: українська
переклад: багатоголосий закадровий
кодек: 2.0
бітрейт: 192 кбіт/с

Аудіо # 2:
мова: українська
переклад: багатоголосий закадровий - Так Треба Продакшн
ролі озвучили: Клайв Овен — Олег Стальчук, Дензел Вашинґтон — Володимир Терещук, Дмитро Терещук, Джоді Фостер — Олена Яблучна і ще один жіночий голос
кодек: 2.0
бітрейт: 192 кбіт/с

Аудіо # 3:
мова: англійська
переклад: оригінал
кодек: 5.1
бітрейт: 1509 кбіт/с

Аудіо # 4:
мова: англійська
переклад: коментарі режисера Спайка Лі
кодек: 2.0
бітрейт: 192 кбіт/с

Субтитри:
мова: англійська
тип: програмні (м'які)
формат: *.srt

Збережено оригінальні розділи, як на Blu-ray.
MediaInfo та log
Код:
General
Unique ID                                : 173990437733571901383812286092551473149 (0x82E556E35D696CF1A6FCB5DB5D4147FD)
Complete name                            : Inside Man (2006) [2xUkr,Eng sub.Eng] 720p [Hurtom & HQClub].mkv
Format                                   : Matroska
Format version                           : Version 4 / Version 2
File size                                : 5.88 GiB
Duration                                 : 2h 8mn
Overall bit rate                         : 6 541 Kbps
Movie name                               : Не впіймали - не злодій / Inside Man (2006) 720p [Hurtom & HQClub]
Encoded date                             : UTC 2014-10-21 09:00:15
Writing application                      : mkvmerge v7.2.0 ('On Every Street') 64bit built on Sep 13 2014 15:52:10
Writing library                          : libebml v1.3.0 + libmatroska v1.4.1
DURATION                                 : 02:08:36.608000000
NUMBER_OF_FRAMES                         : 241144
NUMBER_OF_BYTES                          : 185198592
_STATISTICS_WRITING_APP                  : mkvmerge v7.2.0 ('On Every Street') 64bit built on Sep 13 2014 15:52:10
_STATISTICS_WRITING_DATE_UTC             : 2014-10-21 09:00:15
_STATISTICS_TAGS                         : BPS DURATION NUMBER_OF_FRAMES NUMBER_OF_BYTES

Video
ID                                       : 1
Format                                   : AVC
Format/Info                              : Advanced Video Codec
Format profile                           : [email protected]
Format settings, CABAC                   : Yes
Format settings, ReFrames                : 8 frames
Codec ID                                 : V_MPEG4/ISO/AVC
Duration                                 : 2h 8mn
Bit rate                                 : 4 325 Kbps
Width                                    : 1 280 pixels
Height                                   : 544 pixels
Display aspect ratio                     : 2.35:1
Frame rate mode                          : Constant
Frame rate                               : 23.976 fps
Color space                              : YUV
Chroma subsampling                       : 4:2:0
Bit depth                                : 8 bits
Scan type                                : Progressive
Bits/(Pixel*Frame)                       : 0.259
Stream size                              : 3.89 GiB (66%)
Title                                    : Не впіймали - не злодій / Inside Man / Не пойман - не вор (2006) 720p [HQClub-DaniLch, Inside.Man.2006.BluRay.1080p.CEE.VC-1.-HD.MA-Gazdi]
Writing library                          : core 114 r1913 5fd3dce
Encoding settings                        : cabac=1 / ref=8 / deblock=1:-3:-2 / analyse=0x3:0x113 / me=umh / subme=10 / psy=1 / psy_rd=0.90:0.10 / mixed_ref=1 / me_range=32 / chroma_me=1 / trellis=2 / 8x8dct=1 / cqm=0 / deadzone=21,11 / fast_pskip=0 / chroma_qp_offset=0 / threads=6 / sliced_threads=0 / nr=0 / decimate=1 / interlaced=0 / constrained_intra=0 / bframes=10 / b_pyramid=2 / b_adapt=2 / b_bias=0 / direct=1 / weightb=1 / open_gop=0 / weightp=2 / keyint=250 / keyint_min=23 / scenecut=40 / intra_refresh=0 / rc_lookahead=40 / rc=crf / mbtree=0 / crf=18.0 / qcomp=0.60 / qpmin=10 / qpmax=51 / qpstep=4 / vbv_maxrate=50000 / vbv_bufsize=62500 / crf_max=0.0 / nal_hrd=none / ip_ratio=1.40 / pb_ratio=1.30 / aq=1:0.80
Language                                 : English
Default                                  : Yes
Forced                                   : No

Audio #1
ID                                       : 2
Format                                   : AC-3
Format/Info                              : Audio Coding 3
Mode extension                           : CM (complete main)
Format settings, Endianness              : Big
Codec ID                                 : A_AC3
Duration                                 : 2h 8mn
Bit rate mode                            : Constant
Bit rate                                 : 192 Kbps
Channel(s)                               : 2 channels
Channel positions                        : Front: L R
Sampling rate                            : 48.0 KHz
Bit depth                                : 16 bits
Compression mode                         : Lossy
Stream size                              : 177 MiB (3%)
Title                                    : MVO [NLO TV] 2.0 192 kbps [Hurtom-DеLight]
Language                                 : Ukrainian
Default                                  : Yes
Forced                                   : No

Audio #2
ID                                       : 3
Format                                   : AC-3
Format/Info                              : Audio Coding 3
Mode extension                           : CM (complete main)
Format settings, Endianness              : Big
Codec ID                                 : A_AC3
Duration                                 : 2h 8mn
Bit rate mode                            : Constant
Bit rate                                 : 192 Kbps
Channel(s)                               : 2 channels
Channel positions                        : Front: L R
Sampling rate                            : 48.0 KHz
Bit depth                                : 16 bits
Compression mode                         : Lossy
Stream size                              : 177 MiB (3%)
Title                                    : MVO [TakTrebaProduction-Ukraina] 2.0 192 kbps [Hurtom-DеLight]
Language                                 : Ukrainian
Default                                  : No
Forced                                   : No

Audio #3
ID                                       : 4
Format                                   :
Format/Info                              : Digital Theater Systems
Mode                                     : 16
Format settings, Endianness              : Big
Codec ID                                 : A_DTS
Duration                                 : 2h 8mn
Bit rate mode                            : Constant
Bit rate                                 : 1 509 Kbps
Channel(s)                               : 6 channels
Channel positions                        : Front: L C R, Side: L R, LFE
Sampling rate                            : 48.0 KHz
Bit depth                                : 24 bits
Compression mode                         : Lossy
Stream size                              : 1.36 GiB (23%)
Title                                    : Original 5.1 1510 kbps
Language                                 : English
Default                                  : No
Forced                                   : No

Audio #4
ID                                       : 5
Format                                   : AC-3
Format/Info                              : Audio Coding 3
Format profile                           : Dolby Digital
Mode extension                           : CM (complete main)
Format settings, Endianness              : Big
Codec ID                                 : A_AC3
Duration                                 : 2h 8mn
Bit rate mode                            : Constant
Bit rate                                 : 192 Kbps
Channel(s)                               : 2 channels
Channel positions                        : Front: L R
Sampling rate                            : 48.0 KHz
Bit depth                                : 16 bits
Compression mode                         : Lossy
Stream size                              : 177 MiB (3%)
Title                                    : Commentary
Language                                 : English
Default                                  : No
Forced                                   : No

Text
ID                                       : 6
Format                                   : UTF-8
Codec ID                                 : S_TEXT/UTF8
Codec ID/Info                            : UTF-8 Plain Text
Language                                 : English
Default                                  : No
Forced                                   : No

Menu
00:00:00.000                             : en:00:00:00.000
00:04:14.963                             : en:00:04:14.963
00:13:08.162                             : en:00:13:08.162
00:20:40.281                             : en:00:20:40.281
00:25:32.573                             : en:00:25:32.573
00:30:25.699                             : en:00:30:25.699
00:35:44.392                             : en:00:35:44.392
00:40:20.793                             : en:00:40:20.793
00:45:32.730                             : en:00:45:32.730
00:57:18.143                             : en:00:57:18.143
01:06:51.132                             : en:01:06:51.132
01:12:34.767                             : en:01:12:34.767
01:17:26.851                             : en:01:17:26.851
01:25:20.073                             : en:01:25:20.073
01:30:47.859                             : en:01:30:47.859
01:36:22.235                             : en:01:36:22.235
01:42:02.742                             : en:01:42:02.742
01:47:06.295                             : en:01:47:06.295
01:56:05.500                             : en:01:56:05.500
02:02:56.035                             : en:02:02:56.035


Код:
---[NoImage] [info]: frame I:1397 Avg QP:16.61 size: 83107
---[NoImage] [info]: frame P:36814 Avg QP:17.74 size: 39850
---[NoImage] [info]: frame B:146802 Avg QP:20.47 size: 18470

---[NoImage] [info]: consecutive B-frames: 1.5% 1.9% 3.9% 23.2% 9.2% 43.2% 3.9% 6.4% 1.5% 4.2% 1.0%

---[NoImage] [info]: ref P L0: 43.6% 9.3% 19.6% 8.3% 6.8% 5.1% 4.4% 2.9% 0.2% 0.0%
---[NoImage] [info]: ref B L0: 68.0% 14.1% 7.9% 4.3% 3.3% 1.8% 0.7%
---[NoImage] [info]: ref B L1: 90.9% 9.1%




Джерела та подяки: &
ріп відео - DaniLch (HQClub); українські доріжки - DеLight - зведення, POMEO та Merdiff - запис з ТБ; українізовані постери - thefir та Воїн (всі - Гуртом).


ЗАЛИШАЙТЕСЬ ЯКОМОГА ДОВШЕ НА РОЗДАЧІ!

СКАЧАВ САМ - ДАЙ СКАЧАТИ ІНШИМ


 Трекер:    Зареєстрований   

Завантажити / скачати фільм українською



відео для новачків



 Зареєстрований:   2014-10-21 11:45
 Розмір:   5.88 GB 
 Оцінка фільму:   5.7/10 (Голосів: 23)
   
Інші релізи
Косячок справжній 
VIP


З нами з: 29.02.12
Востаннє: 04.12.16
Повідомлень: 656

2016-04-30 16:15  
Якось награно виглядає фільм, не знаю.
Ваш часовий пояс: GMT + 2 Години

Нова тема   Відповісти