Завантажити та скачати торренти українською


Зак і Кряк (Сезон 1, серії 36 з 52) / Zack and Quack (Season 1, episodes 1-36) (2012-2014) IPTV

Нові коментарі

Нова тема   Відповісти
Автор Повідомлення
ZETMAN 
Новенький


З нами з: 09.03.13
Востаннє: 04.12.16
Повідомлень: 15

2014-10-20 19:05  
Зак і Кряк (Сезон 1, серії 36 з 52) / Zack and Quack (Season 1, episodes 1-36) (2012-2014) IPTV

Зак і Кряк (Сезон 1, серії 36 з 52) / Zack and Quack (Season 1, episodes 1-36) (2012-2014) IPTV


Жанр: дитячий, пригодницький
Країна: Ізраїль, Великобританія



Кінокомпанія: Nickelodeon
Режисер: Джилі Долев, Ехад Лансберг , Ліз Уайтакер, Івет Каплан/ Gili Dolev, Ehud Landsberg, Liz Whitaker, Yvette Kaplan
Актори/ролі озвучують: Томас Албріттон, Нік Бейкер, Медісон Хатхевей, Джессі Рей Шепс/Thomas Albritton, Nick Baker, Madison Hathaway, Jesse Ray Sheps.

Сюжет:
Дивовижний світ, де головний герой – цікавий та дуже енергійний хлопчик, на ім'я Зак, який робить неймовірні відкриття разом зі своїм другом, каченям Кряком.

Ця дружня компанія звикла завжди бути разом, тому кожна пригода Зака не обходиться без його вірних і відданих друзів Кряка, Кіри та інших. Разом вони потрапляють в різні історії, зустрічаються з добром і злом, але завжди все закінчується славно!


Тривалість: 1 серія: 10:39; Серій 2,24,31: 20:36 (цілком серій: 36 з 52)

Перелік серій
1 Будиночьок на дереві
2 Великі лёдяні перегони- Велетенське малюсеньке кошеня
3 Володарі паперового м,яча
4 Гарбузове поле
5 Гикавка-причепа
6 Зак та Кряк у цирку
7 Змагання повітряних зміїв
8 Качині канікули
9 Квітка
10 Легенда про короля
11 Лицарі Паперлота
12 Міссія на місяці
13 Небувалий раніше пікнік
14 Новий мешканець ставку
15 Ніндзя схованок
16 Охайний садок
17 Павук-Рятівник
18 Паперанг 3000
19 Паперова таямниця
20 Паперове чудовисько
21 Паперовий гольф
22 Паперовий єкспресс
23 Паперові ідоли
24 Папірозавр Рекс-Підкорення Папіресту
25 Перегони
26 Різдвяний лист
27 Святкова вечірка для Кряка
28 Святкова кулька
29 Сніговик
30 Супер-Герой.
31 У пошуках піратського скарбу-Паперові ігри
32 Уперед ковбою
33 Шерив поспішае на допомогу
Скріншот






Якість: IPTV
Відео:
кодек: MPEG 4
розмір кадру: 720х576 @ 1024х576
бітрейт:1 643кб/с

Аудіо:
мова: українська
переклад: професійний дубльований Студія «Майстер-Відео»
кодек: MP3
бітрейт: 128 кб/с

Джерело озвучення:


Особиста оцінка: 8 - мені сподобалося
Звіт MediaInfo
General
Complete name : D:\ВИДЕО\НА Раздачу\Зак і Кряк\Володарі паперового м,яча.avi
Format : AVI
Format/Info : Audio Video Interleave
File size : 125 MiB
Duration : 10mn 39s
Overall bit rate : 1 643 Kbps
Writing application : Lavf52.31.0

Video
ID : 0
Format : MPEG-4 Visual
Codec ID : MP42
Codec ID/Info : Microsoft MPEG-4 v2 (pre-standard)
Codec ID/Hint : Microsoft
Duration : 10mn 39s
Bit rate : 1 502 Kbps
Width : 720 pixels
Height : 576 pixels
Display aspect ratio : 5:4
Frame rate : 29.970 fps
Standard : PAL
Bits/(Pixel*Frame) : 0.121
Stream size : 115 MiB (91%)

Audio
ID : 1
Format : MPEG Audio
Format version : Version 1
Format profile : Layer 3
Mode : Joint stereo
Mode extension : MS Stereo
Codec ID : 55
Codec ID/Hint : MP3
Duration : 10mn 39s
Bit rate mode : Constant
Bit rate : 128 Kbps
Channel(s) : 2 channels
Sampling rate : 44.1 KHz
Stream size : 9.76 MiB (8%)
Alignment : Aligned on interleaves
Interleave, duration : 26 ms (0.78 video frame)
Interleave, preload duration : 26 ms
Writing library : LAME3.98.2


Бронзовий реліз (на рейтинг впливає 75% завантаженого)
 Трекер:    Зареєстрований   

Завантажити / скачати мультфільм українською



відео для новачків



 Зареєстрований:   2016-12-03 18:58
 Розмір:   4.25 GB 
 Оцінка мультсеріалу:   -/10 (Голосів: 0)
   
kino. 
Модератор відео


З нами з: 27.06.10
Востаннє: 07.12.16
Повідомлень: 2900

2014-10-21 05:22  
Додайте перелік серій
ZETMAN 
Новенький


З нами з: 09.03.13
Востаннє: 04.12.16
Повідомлень: 15

2014-10-21 10:54  
kino.
Додав

ZETMAN 
Новенький


З нами з: 09.03.13
Востаннє: 04.12.16
Повідомлень: 15

2014-10-26 22:04  
Торент оновлено.
Додано серії 6-10
6 Змагання повітряних зміїв
7 Качині канікули
8 Небувалий раніше пікнік
9 Паперова таямниця
10 Паперові ідоли

ZETMAN 
Новенький


З нами з: 09.03.13
Востаннє: 04.12.16
Повідомлень: 15

2014-12-02 21:43  
Торент оновлено.
Додано серій 11-26
Усі серій переформатовано у AVI

ZETMAN 
Новенький


З нами з: 09.03.13
Востаннє: 04.12.16
Повідомлень: 15

2015-01-20 22:43  
Торент оновлено.
Додано серій 27-36
У зв'язку з технічними проблемами я більше не маю змоги робити записи з плюсплюса. Дякую всім тих хто підтримував і підтримуе цю раздачу. Як тільки з'явится можливість робити записи роздача буде знову оновлюватися. Буду вдячний якщо надасте відсутні серій.

akon111 
Відео Гуртом - запис з ТБ
Відео Гуртом - запис з ТБ


З нами з: 28.08.09
Востаннє: 07.12.16
Повідомлень: 1207

2016-11-30 14:28  
що за будиночьок? перемагае? таямниця? м,яча? єкспрес? в нас нема таких слів..виправляй
sergiyko.5 
VIP


З нами з: 25.02.16
Востаннє: 07.12.16
Повідомлень: 480

2016-11-30 14:34  
akon111 написано:
Зак і Кряк

Прокинувся, останнє повідомлення
Цитата:
2015-01-20 22:43
реліз
Цитата:
2014-10-20 19:05

akon111 
Відео Гуртом - запис з ТБ
Відео Гуртом - запис з ТБ


З нами з: 28.08.09
Востаннє: 07.12.16
Повідомлень: 1207

2016-11-30 14:34  
sergiyko.5 
VIP


З нами з: 25.02.16
Востаннє: 07.12.16
Повідомлень: 480

2016-11-30 14:36  
akon111 написано:
докачуй серії


Всі серії вже давно на трекері і в кращій якості: http://toloka.to/t76724

11FrYkT 
Модератор відео


З нами з: 20.02.11
Востаннє: 07.12.16
Повідомлень: 3122

2016-12-03 21:57  
ZETMAN , у Вас тут вже 2 сезони. вкажіть в заголовку скільки серій 1 і 2 сезонів, також весь перелік серій розділений по сезонах
Ваш часовий пояс: GMT + 2 Години

Нова тема   Відповісти