Завантажити та скачати торренти українською


Дитяча кімната / The Baby's Room / Películas para no dormir: La habitación del niño (2006) Ukr/Spa | Sub Eng

Нові коментарі

Нова тема   Відповісти
Автор Повідомлення
Anonymous 







2014-10-20 16:21  
Дитяча кімната / The Baby's Room / Películas para no dormir: La habitación del niño (2006) Ukr/Spa | Sub Eng



Жанр: жахи, трилер, детектив
Країна: Іспанія



Кінокомпанія: Estudios Picasso, Filmax, Telecinco, Castelao Producciones
Режисер: Алекс де ла Іґлесіа / Alex de la Iglesia
Актори: Хав'єр Гутьєррез / Javier Gutiérrez, Леонор Вотлінґ / Leonor Watling, Марія Аскеріно / María Asquerino, Санчо Грасія / Sancho Gracia та інші.

Сюжет:
Подружжя з маленькою дитиною переїжджає до нового будинку. Життя йде спокійно, але згодом молодим батькам здається, що хтось стежить за ними та їхнім будинком, маючи намір викрасти малюка. Ця думка доводить їх до стресу. Під загрозою їхня робота і сімейне щастя. Якщо не вжити рішучих заходів, може статися щось непоправне...


Стрічка належить до іспанського телевізійного циклу:
"Фільми, що не дадуть вам заснути (Películas para no dormir)"
який складається з шести різних картин, котрі зафільмовані різними режисерами.
Інші фільми циклу
1. Новорічна казка / Películas para no dormir: Cuento de navidad (2005) - всі релізи на Гуртом
2. Квартира під ключ / Películas para no dormir: Para entrar a vivir (2006) - всі релізи на Гуртом
3. Дитяча кімната / Películas para no dormir: La habitación del niño (2006) - всі релізи на Гуртом
4. Провина / Películas para no dormir: La culpa (2006) - всі релізи на Гуртом
5. Привид. Повернення до Мири / Películas para no dormir: Regreso a Moira (2006) - всі релізи на Гуртом
6. Реальний друг / Películas para no dormir: Adivina quién soy (2006) - всі релізи на Гуртом

Вікова категорія: 15+

Тривалість: 01:19:49
Якість:
Відео:
кодек:
розмір кадру: 704x384
бітрейт: 2026 кбіт/с

Аудіо # 1:
мова: українська
переклад: двоголосий закадровий - Студія 1+1
кодек: 2.0
бітрейт: 192 кбіт/с
Інформація про озвучення

Українською мовою фільм озвучено на Студії 1+1
Переклад: Олена Борисова
Літературний редактор: Оксана Батюк
Звукорежисер: Віктор Коляда
Режисер: Сергій Гаврилюк
Ролі озвучили: Тетяна Антонова та Олександр Завальський
Аудіо # 2:
мова: іспанська
переклад: оригінал
кодек: 2.0
бітрейт: 192 кбіт/с

Субтитри:
мова: англійська (завантажити)
тип: програмні (м'які)
формат: *.srt
MediaInfo
Код:
General
Complete name                            : Peliculas para no dormir. La habitacion del nino (2006) [Ukr,Spa] [Hurtom].avi
Format                                   : AVI
Format/Info                              : Audio Video Interleave
File size                                : 1.35 GiB
Duration                                 : 1h 19mn
Overall bit rate                         : 2 424 Kbps
Movie name                               : Дитяча кімната / Peliculas para no dormir: La habitacion del nino / Детская комната (2006)
Director                                 : robotron005, igor911 (Hurtom.com); tеko (Rutracker)
Genre                                    : жахи, трилер, детектив
Writing application                      : VirtualDubModRus 1.5.10.2 (build 2540/release)
Writing library                          : VirtualDubMod build 2540/release
Copyright                                : robotron005, igor911 (Hurtom.com); tеko (Rutracker); Diablo (HDClub)
Comment                                  : 20.10.2014

Video
ID                                       : 0
Format                                   : MPEG-4 Visual
Format profile                           : Advanced [email protected]
Format settings, BVOP                    : 2
Format settings, QPel                    : No
Format settings, GMC                     : No warppoints
Format settings, Matrix                  : Custom
Codec ID                                 :
Codec ID/Hint                            :
Duration                                 : 1h 19mn
Bit rate                                 : 2 026 Kbps
Width                                    : 704 pixels
Height                                   : 384 pixels
Display aspect ratio                     : 1.85:1
Frame rate                               : 24.000 fps
Color space                              : YUV
Chroma subsampling                       : 4:2:0
Bit depth                                : 8 bits
Scan type                                : Progressive
Compression mode                         : Lossy
Bits/(Pixel*Frame)                       : 0.312
Stream size                              : 1.13 GiB (84%)
Writing library                          : 73

Audio #1
ID                                       : 1
Format                                   : AC-3
Format/Info                              : Audio Coding 3
Mode extension                           : CM (complete main)
Format settings, Endianness              : Big
Codec ID                                 : 2000
Duration                                 : 1h 19mn
Bit rate mode                            : Constant
Bit rate                                 : 192 Kbps
Channel(s)                               : 2 channels
Channel positions                        : Front: L R
Sampling rate                            : 48.0 KHz
Bit depth                                : 16 bits
Compression mode                         : Lossy
Stream size                              : 110 MiB (8%)
Alignment                                : Split accross interleaves
Interleave, duration                     : 42 ms (1.00 video frame)
Interleave, preload duration             : 500 ms

Audio #2
ID                                       : 2
Format                                   : AC-3
Format/Info                              : Audio Coding 3
Mode extension                           : CM (complete main)
Format settings, Endianness              : Big
Codec ID                                 : 2000
Duration                                 : 1h 19mn
Bit rate mode                            : Constant
Bit rate                                 : 192 Kbps
Channel(s)                               : 2 channels
Channel positions                        : Front: L R
Sampling rate                            : 48.0 KHz
Bit depth                                : 16 bits
Compression mode                         : Lossy
Stream size                              : 110 MiB (8%)
Alignment                                : Split accross interleaves
Interleave, duration                     : 42 ms (1.00 video frame)
Interleave, preload duration             : 500 ms




Джерела та подяки: & &
Джерело відео - ремукс Diablo (HDClub); ріп відео - tеko (Rutracker); українська доріжка - robotron005 - запис з ТБ та зведення; українізований постер - thefir (Гуртом).


ЗАЛИШАЙТЕСЬ ЯКОМОГА ДОВШЕ НА РОЗДАЧІ!

СКАЧАВ САМ - ДАЙ СКАЧАТИ ІНШИМ

Джерело:


 Трекер:    Зареєстрований   

Завантажити / скачати фільм українською



відео для новачків



 Зареєстрований:   2014-10-20 16:21
 Розмір:   1.35 GB 
 Оцінка фільму:   4.2/10 (Голосів: 19)
   
chuvak_9404 
Поважний учасник


З нами з: 16.08.12
Востаннє: 01.12.16
Повідомлень: 182

2014-10-20 17:25  
Давненько дивився. Моторошне кіно, особливо, моменти з тією камерою дитячою. Рейтинг більш ніж справедливий. Старайтесь не дивитись наодинці )
вальдемар 
Свій


З нами з: 06.01.11
Востаннє: 04.12.16
Повідомлень: 58

2014-12-07 12:00  
Дивитися можна.
vadim_granger 
Свій


З нами з: 19.05.13
Востаннє: 04.12.16
Повідомлень: 129

2014-12-15 22:33  
моторошне кіно...
tk4chenko 
Частий відвідувач


З нами з: 25.03.10
Востаннє: 05.12.16
Повідомлень: 41

2014-12-16 13:06  
vadim_granger
бляха, не те слово. хоча після перегляду якісь двоякі відчуття, фільм з циклу "кіно не для всіх"

Ваш часовий пояс: GMT + 2 Години

Нова тема   Відповісти