Завантажити та скачати торренти українською


Дитяча кімната / The Baby's Room / Películas para no dormir: La habitación del niño (2006) 720p Ukr/Spa | Sub Eng

Нові коментарі

Нова тема   Відповісти
Автор Повідомлення
Anonymous 







2014-10-20 10:07  
Дитяча кімната / The Baby's Room / Películas para no dormir: La habitación del niño (2006) 720p Ukr/Spa | Sub Eng



Жанр: жахи, трилер, детектив
Країна: Іспанія



Кінокомпанія: Estudios Picasso, Filmax, Telecinco, Castelao Producciones
Режисер: Алекс де ла Іґлесіа / Alex de la Iglesia
Актори: Хав'єр Гутьєррез / Javier Gutiérrez, Леонор Вотлінґ / Leonor Watling, Марія Аскеріно / María Asquerino, Санчо Грасія / Sancho Gracia та інші.

Сюжет:
Подружжя з маленькою дитиною переїжджає до нового будинку. Життя йде спокійно, але згодом молодим батькам здається, що хтось стежить за ними та їхнім будинком, маючи намір викрасти малюка. Ця думка доводить їх до стресу. Під загрозою їхня робота і сімейне щастя. Якщо не вжити рішучих заходів, може статися щось непоправне...


Стрічка належить до іспанського телевізійного циклу:
"Фільми, що не дадуть вам заснути (Películas para no dormir)"
який складається з шести різних картин, котрі зафільмовані різними режисерами.
Інші фільми циклу
1. Новорічна казка / Películas para no dormir: Cuento de navidad (2005) - всі релізи на Гуртом
2. Квартира під ключ / Películas para no dormir: Para entrar a vivir (2006) - всі релізи на Гуртом
3. Дитяча кімната / Películas para no dormir: La habitación del niño (2006) - всі релізи на Гуртом
4. Провина / Películas para no dormir: La culpa (2006) - всі релізи на Гуртом
5. Привид. Повернення до Мири / Películas para no dormir: Regreso a Moira (2006) - всі релізи на Гуртом
6. Реальний друг / Películas para no dormir: Adivina quién soy (2006) - всі релізи на Гуртом

Вікова категорія: 15+

Тривалість: 01:19:49
Якість: 720p [CRiSC]
Відео:
кодек:
розмір кадру: 1280x700
бітрейт: 8099 кбіт/с

Аудіо # 1:
мова: українська
переклад: двоголосий закадровий - Студія 1+1
кодек: 2.0
бітрейт: 192 кбіт/с
Інформація про озвучення

Українською мовою фільм озвучено на Студії 1+1
Переклад: Олена Борисова
Літературний редактор: Оксана Батюк
Звукорежисер: Віктор Коляда
Режисер: Сергій Гаврилюк
Ролі озвучили: Тетяна Антонова та Олександр Завальський
Аудіо # 2:
мова: іспанська
переклад: оригінал
кодек: 5.1
бітрейт: 1509 кбіт/с

Субтитри:
мова: англійська
тип: програмні (м'які)
формат: *.srt

Збережено оригінальні розділи, як на Blu-ray.
MediaInfo
Код:
General
Unique ID                                : 180786443611970041349970851645681439590 (0x880233D8F368C6A0A182AE1BEB661366)
Complete name                            : Peliculas para no dormir. La habitacion del nino (2006) [Ukr,Spa sub.Eng] 720p [Hurtom & HDClub].mkv
Format                                   : Matroska
Format version                           : Version 4 / Version 2
File size                                : 5.46 GiB
Duration                                 : 1h 19mn
Overall bit rate                         : 9 794 Kbps
Movie name                               : Дитяча кімната / Películas para no dormir: La habitación del niño (2006) 720p [Hurtom & HDClub]
Encoded date                             : UTC 2014-10-20 07:29:42
Writing application                      : mkvmerge v7.2.0 ('On Every Street') 64bit built on Sep 13 2014 15:52:10
Writing library                          : libebml v1.3.0 + libmatroska v1.4.1
DURATION                                 : 01:16:56.120000000
NUMBER_OF_FRAMES                         : 735
NUMBER_OF_BYTES                          : 30322
_STATISTICS_WRITING_APP                  : mkvmerge v7.2.0 ('On Every Street') 64bit built on Sep 13 2014 15:52:10
_STATISTICS_WRITING_DATE_UTC             : 2014-10-20 07:29:42
_STATISTICS_TAGS                         : BPS DURATION NUMBER_OF_FRAMES NUMBER_OF_BYTES

Video
ID                                       : 1
Format                                   : AVC
Format/Info                              : Advanced Video Codec
Format profile                           : [email protected]
Format settings, CABAC                   : Yes
Format settings, ReFrames                : 9 frames
Codec ID                                 : V_MPEG4/ISO/AVC
Duration                                 : 1h 19mn
Bit rate                                 : 8 099 Kbps
Width                                    : 1 280 pixels
Height                                   : 700 pixels
Display aspect ratio                     : 1.85:1
Frame rate mode                          : Constant
Frame rate                               : 24.000 fps
Color space                              : YUV
Chroma subsampling                       : 4:2:0
Bit depth                                : 8 bits
Scan type                                : Progressive
Bits/(Pixel*Frame)                       : 0.377
Stream size                              : 4.40 GiB (81%)
Title                                    : Дитяча кімната / Películas para no dormir: La habitación del niño / Детская комната (2006) 720p [CRiSC]
Writing library                          : core 125 r2200 999b753
Encoding settings                        : cabac=1 / ref=9 / deblock=1:-3:-3 / analyse=0x3:0x133 / me=umh / subme=11 / psy=1 / psy_rd=1.05:0.00 / mixed_ref=1 / me_range=64 / chroma_me=1 / trellis=2 / 8x8dct=1 / cqm=0 / deadzone=21,11 / fast_pskip=0 / chroma_qp_offset=-2 / threads=12 / lookahead_threads=2 / sliced_threads=0 / nr=0 / decimate=1 / interlaced=0 / bluray_compat=0 / constrained_intra=0 / bframes=9 / b_pyramid=2 / b_adapt=2 / b_bias=0 / direct=3 / weightb=1 / open_gop=0 / weightp=2 / keyint=250 / keyint_min=24 / scenecut=40 / intra_refresh=0 / rc_lookahead=40 / rc=2pass / mbtree=0 / bitrate=8099 / ratetol=1.0 / qcomp=0.60 / qpmin=0 / qpmax=69 / qpstep=4 / cplxblur=20.0 / qblur=0.5 / vbv_maxrate=50000 / vbv_bufsize=62500 / nal_hrd=none / ip_ratio=1.10 / pb_ratio=1.10 / aq=1:1.00
Language                                 : Spanish
Default                                  : Yes
Forced                                   : No
DURATION                                 : 01:19:49.542000000
NUMBER_OF_FRAMES                         : 114949
NUMBER_OF_BYTES                          : 4843782479
_STATISTICS_WRITING_APP                  : mkvmerge v7.2.0 ('On Every Street') 64bit built on Sep 13 2014 15:52:10
_STATISTICS_WRITING_DATE_UTC             : 2014-10-20 07:29:42
_STATISTICS_TAGS                         : BPS DURATION NUMBER_OF_FRAMES NUMBER_OF_BYTES

Audio #1
ID                                       : 2
Format                                   : AC-3
Format/Info                              : Audio Coding 3
Mode extension                           : CM (complete main)
Format settings, Endianness              : Big
Codec ID                                 : A_AC3
Duration                                 : 1h 19mn
Bit rate mode                            : Constant
Bit rate                                 : 192 Kbps
Channel(s)                               : 2 channels
Channel positions                        : Front: L R
Sampling rate                            : 48.0 KHz
Bit depth                                : 16 bits
Compression mode                         : Lossy
Stream size                              : 110 MiB (2%)
Title                                    : DVO [1+1] 2.0 192 kbps [Hurtom-robotron005]
Language                                 : Ukrainian
Default                                  : Yes
Forced                                   : No

Audio #2
ID                                       : 3
Format                                   :
Format/Info                              : Digital Theater Systems
Mode                                     : 16
Format settings, Endianness              : Big
Codec ID                                 : A_DTS
Duration                                 : 1h 19mn
Bit rate mode                            : Constant
Bit rate                                 : 1 509 Kbps
Channel(s)                               : 6 channels
Channel positions                        : Front: L C R, Side: L R, LFE
Sampling rate                            : 48.0 KHz
Bit depth                                : 16 bits
Compression mode                         : Lossy
Stream size                              : 862 MiB (15%)
Title                                    : Original 5.1 1509 kbps
Language                                 : Spanish
Default                                  : No
Forced                                   : No

Text
ID                                       : 4
Format                                   : UTF-8
Codec ID                                 : S_TEXT/UTF8
Codec ID/Info                            : UTF-8 Plain Text
Language                                 : English
Default                                  : No
Forced                                   : No

Menu
00:00:00.000                             : :00:00:00.000
00:04:18.041                             : :00:04:18.041
00:07:19.625                             : :00:07:19.625
00:12:26.125                             : :00:12:26.125
00:15:51.291                             : :00:15:51.291
00:20:29.583                             : :00:20:29.583
00:24:42.750                             : :00:24:42.750
00:31:59.416                             : :00:31:59.416
00:36:07.125                             : :00:36:07.125
00:41:27.458                             : :00:41:27.458
00:48:29.666                             : :00:48:29.666
00:55:05.083                             : :00:55:05.083
01:00:47.708                             : :01:00:47.708
01:06:22.500                             : :01:06:22.500
01:10:05.041                             : :01:10:05.041
01:16:44.083                             : :01:16:44.083





Джерела та подяки: &
ріп відео, оригінальний звук - CRiSC (HDbits), madoff (HDClub); українська доріжка - robotron005 - запис з ТБ та зведення; українізований постер - thefir (Гуртом).


ЗАЛИШАЙТЕСЬ ЯКОМОГА ДОВШЕ НА РОЗДАЧІ!

СКАЧАВ САМ - ДАЙ СКАЧАТИ ІНШИМ


 Трекер:    Зареєстрований   

Завантажити / скачати фільм українською



відео для новачків



 Зареєстрований:   2014-10-20 10:07
 Розмір:   5.46 GB 
 Оцінка фільму:   3.4/10 (Голосів: 14)
   
Ваш часовий пояс: GMT + 2 Години

Нова тема   Відповісти