Завантажити та скачати торренти українською


Пароль "Риба-Меч" / Swordfish (2001) 720p Ukr/Eng | Sub Eng

Нові коментарі

Нова тема   Відповісти
Автор Повідомлення
Anonymous 







2014-10-19 17:41  
Пароль "Риба-Меч" / Swordfish (2001) 720p Ukr/Eng | Sub Eng



Оригінальний постер



Жанр: бойовик, трилер, кримінал
Країна: США, Австралія



Кінокомпанія: Jonathan Krane Group, Krane Entertainment, NPV Entertainment, Silver Pictures, Village Roadshow Pictures, Warner Bros.
Режисер: Домінік Сена / Dominic Sena
Актори: Джон Траволта / John Travolta, Г'ю Джекмен / Hugh Jackman, Геллі Беррі / Halle Berry, Дон Чідл / Don Cheadle, Сем Шепард / Sam Shepard, Вінні Джонс / Vinnie Jones, Дреа Де Маттео / Drea de Matteo, Рудольф Мартін / Rudolf Martin, Зак Гренье / Zach Grenier, Камрін Граймс / Camryn Grimes та інші

Сюжет:
Один з найнебезпечніших шпигунів у світі, харизматичний Гебріел Шир, що працював колись на ЦРУ, а нині став геніальним злочинцем, замислює вкрасти 9 мільярдів доларів з нелегальних урядових фондів. Для цього йому потрібна допомога суперхакера, здатного зламати систему безпеки будь-якої комп'ютерної мережі. Таким умільцем є Стенлі Джобсон, який недавно відсидів термін за злам ФБР.

В результаті Джобсон залишився без грошей, без улюбленого заняття, а головне - без улюбленої дочки Холлі. Гебріел та його чарівна партнерка Джінжер заманюють Стенлі в свою зухвалу авантюру, обіцяючи хакерові те, від чого він не може відмовитися - в обмін на виконану роботу він отримає опікунство над дочкою і шанс почати нове життя.

Проте, взявшись за реалізацію цієї складної і ризикованої операції, Стенлі раптом розуміє, що він лише пішак у великій грі.


Рейтинг MPAA: R - особам до 17 років обов'язкова присутність батьків або дорослого опікуна
Вікова категорія: 14+

Тривалість: 01:39:15
Якість: 720p
Відео:
кодек:
розмір кадру: 1280x532
бітрейт: 3949 кбіт/с [crf=17.5]

Аудіо # 1:
мова: українська
переклад: професійний дубльований
кодек: 2.0
бітрейт: 192 кбіт/с
Інформація про озвучення
Українською мовою фільм дубльовано на замовлення компанії Новий канал, трансляції з цим дубляжем були по Інтеру та ICTV.
Ролі дублювали: Джон Траволта — Олег Лепенець, Г’ю Джекмен — Володимир Терещук, Голлі Беррі — Тетяна Антонова?, Дон Чідл — Дмитро Завадський, Сем Шепард — Анатолій Пашнін, Валерій Легін?, Юрій Коваленко, Вінні Джонс — Георгій Гавриленко, Ярослав Чорненький, Олесь Гімбаржевський, Олена Узлюк та інші.
Аудіо # 2:
мова: англійська
переклад: оригінал
кодек: 5.1
бітрейт: 640 кбіт/с

Аудіо # 3:
мова: англійська
переклад: коментарі з режисером Домініком Сеною
кодек: 2.0
бітрейт: 192 кбіт/с

Субтитри:
мова: англійська
тип: програмні (м'які)
формат: *.srt

Збережено оригінальні розділи, як на Blu-ray.
MediaInfo та log
Код:
General
Unique ID                                : 228307434434327521580393352176225632584 (0xABC2699658453E23941C679A28BE4148)
Complete name                            : Swordfish (2001) [Ukr,Eng sub.Eng] 720p [Hurtom & HDClub].mkv
Format                                   : Matroska
Format version                           : Version 4 / Version 2
File size                                : 3.52 GiB
Duration                                 : 1h 39mn
Overall bit rate                         : 5 074 Kbps
Movie name                               : Пароль "Риба-Меч" / Swordfish (2001) 1080p [Hurtom & HDClub]
Encoded date                             : UTC 2014-10-19 14:06:01
Writing application                      : mkvmerge v7.2.0 ('On Every Street') 64bit built on Sep 13 2014 15:52:10
Writing library                          : libebml v1.3.0 + libmatroska v1.4.1
DURATION                                 : 01:39:15.616000000
NUMBER_OF_FRAMES                         : 186113
NUMBER_OF_BYTES                          : 142934784
_STATISTICS_WRITING_APP                  : mkvmerge v7.2.0 ('On Every Street') 64bit built on Sep 13 2014 15:52:10
_STATISTICS_WRITING_DATE_UTC             : 2014-10-19 14:06:01
_STATISTICS_TAGS                         : BPS DURATION NUMBER_OF_FRAMES NUMBER_OF_BYTES

Video
ID                                       : 1
Format                                   : AVC
Format/Info                              : Advanced Video Codec
Format profile                           : [email protected]
Format settings, CABAC                   : Yes
Format settings, ReFrames                : 11 frames
Codec ID                                 : V_MPEG4/ISO/AVC
Duration                                 : 1h 39mn
Bit rate                                 : 3 949 Kbps
Width                                    : 1 280 pixels
Height                                   : 532 pixels
Display aspect ratio                     : 2.40:1
Frame rate mode                          : Constant
Frame rate                               : 23.976 fps
Color space                              : YUV
Chroma subsampling                       : 4:2:0
Bit depth                                : 8 bits
Scan type                                : Progressive
Bits/(Pixel*Frame)                       : 0.242
Stream size                              : 2.74 GiB (78%)
Title                                    : Пароль "Риба-Меч" / Swordfish / Пароль «Рыба-меч» (2001) 1080p [HDClub-Skazhutin]
Writing library                          : core 107 r1745 4785e8e
Encoding settings                        : cabac=1 / ref=11 / deblock=1:-3:-2 / analyse=0x3:0x113 / me=umh / subme=10 / psy=1 / psy_rd=1.05:0.10 / mixed_ref=1 / me_range=32 / chroma_me=1 / trellis=2 / 8x8dct=1 / cqm=0 / deadzone=21,11 / fast_pskip=1 / chroma_qp_offset=-3 / threads=6 / sliced_threads=0 / nr=0 / decimate=1 / interlaced=0 / constrained_intra=0 / bframes=8 / b_pyramid=2 / b_adapt=2 / b_bias=0 / direct=3 / weightb=1 / open_gop=0 / weightp=2 / keyint=250 / keyint_min=23 / scenecut=40 / intra_refresh=0 / rc_lookahead=60 / rc=crf / mbtree=0 / crf=17.5 / qcomp=0.70 / qpmin=10 / qpmax=51 / qpstep=4 / vbv_maxrate=50000 / vbv_bufsize=62500 / crf_max=0.0 / ip_ratio=1.40 / pb_ratio=1.30 / aq=1:1.00 / zones=137004,142300,q=35 / nal_hrd=none
Language                                 : English
Default                                  : Yes
Forced                                   : No
Matrix coefficients                      : BT.709
DURATION                                 : 01:39:15.700000000
NUMBER_OF_FRAMES                         : 142794
NUMBER_OF_BYTES                          : 3013434029
_STATISTICS_WRITING_APP                  : mkvmerge v7.2.0 ('On Every Street') 64bit built on Sep 13 2014 15:52:10
_STATISTICS_WRITING_DATE_UTC             : 2014-10-19 14:06:01
_STATISTICS_TAGS                         : BPS DURATION NUMBER_OF_FRAMES NUMBER_OF_BYTES

Audio #1
ID                                       : 2
Format                                   : AC-3
Format/Info                              : Audio Coding 3
Mode extension                           : CM (complete main)
Format settings, Endianness              : Big
Codec ID                                 : A_AC3
Duration                                 : 1h 39mn
Bit rate mode                            : Constant
Bit rate                                 : 192 Kbps
Channel(s)                               : 2 channels
Channel positions                        : Front: L R
Sampling rate                            : 48.0 KHz
Bit depth                                : 16 bits
Compression mode                         : Lossy
Stream size                              : 136 MiB (4%)
Title                                    : Dub [Inter] 2.0 192 kbps [Hurtom-karvai0,xSlim]
Language                                 : Ukrainian
Default                                  : Yes
Forced                                   : No

Audio #2
ID                                       : 3
Format                                   : AC-3
Format/Info                              : Audio Coding 3
Mode extension                           : CM (complete main)
Format settings, Endianness              : Big
Codec ID                                 : A_AC3
Duration                                 : 1h 39mn
Bit rate mode                            : Constant
Bit rate                                 : 640 Kbps
Channel(s)                               : 6 channels
Channel positions                        : Front: L C R, Side: L R, LFE
Sampling rate                            : 48.0 KHz
Bit depth                                : 16 bits
Compression mode                         : Lossy
Stream size                              : 454 MiB (13%)
Title                                    : Original 5.1 640 kbps
Language                                 : English
Default                                  : No
Forced                                   : No

Audio #3
ID                                       : 4
Format                                   : AC-3
Format/Info                              : Audio Coding 3
Format profile                           : Dolby Digital
Mode extension                           : CM (complete main)
Format settings, Endianness              : Big
Codec ID                                 : A_AC3
Duration                                 : 1h 39mn
Bit rate mode                            : Constant
Bit rate                                 : 192 Kbps
Channel(s)                               : 2 channels
Channel positions                        : Front: L R
Sampling rate                            : 48.0 KHz
Bit depth                                : 16 bits
Compression mode                         : Lossy
Stream size                              : 136 MiB (4%)
Title                                    : commentary by Director Dominic Sena 2.0 192 kbps
Language                                 : English
Default                                  : No
Forced                                   : No

Text
ID                                       : 5
Format                                   : UTF-8
Codec ID                                 : S_TEXT/UTF8
Codec ID/Info                            : UTF-8 Plain Text
Language                                 : English
Default                                  : No
Forced                                   : No

Menu
00:00:00.000                             : en:Cinematic Theory
00:04:03.743                             : en:Explosively Wrong Move
00:08:12.033                             : en:Interception at Lax
00:11:47.456                             : en:Ginger Visits
00:15:07.489                             : en:Parental Devotion
00:18:47.042                             : en:Axl in the Box
00:21:58.275                             : en:Gabriel's World
00:24:14.786                             : en:Through the Looking...
00:25:50.090                             : en:Nearly Gone in 60...
00:30:36.000                             : en:Stan's Only Shot
00:34:01.289                             : en:A Deal
00:37:44.262                             : en:Holly's Ride
00:42:11.654                             : en:Way Over His Head
00:46:48.305                             : en:Ginger Off Guard
00:49:12.824                             : en:Operation Swordfish
00:51:52.275                             : en:Worm and a Rottweiler
00:55:27.324                             : en:Hackstasy
00:58:32.509                             : en:Hitting the Hit Squad
01:03:18.544                             : en:Executed for Treason
01:05:53.616                             : en:War Costs
01:09:19.989                             : en:Bank Crash
01:11:11.433                             : en:Daughter in Danger
01:15:24.895                             : en:Ginger Snapped
01:20:09.095                             : en:Misdirection
01:23:15.782                             : en:Bus That Could Fly
01:26:55.960                             : en:Stan's Ending
01:29:01.336                             : en:Flashback
01:30:59.454                             : en:Travel Partners
01:33:29.520                             : en:End Credits


Код:
y4m [info]: 1280x532p 1:1 @ 24000/1001 fps (cfr)
[info]: using SAR=1/1
[info]: using cpu capabilities: MMX2 SSE2Fast SSSE3 FastShuffle SSE4.1 Cache64
[info]: profile High, level 4.1
[info]: frame I:1331  Avg QP:15.74  size: 94154  PSNR Mean Y:47.62 U:50.84 V:51.45 Avg:48.48 Global:47.17
[info]: frame P:34531 Avg QP:17.49  size: 39886  PSNR Mean Y:46.51 U:49.93 V:50.52 Avg:47.30 Global:44.75
[info]: frame B:106932 Avg QP:19.76  size: 14129  PSNR Mean Y:45.10 U:49.00 V:49.76 Avg:46.06 Global:44.32
[info]: consecutive B-frames:  1.8%  3.8%  7.4% 43.2% 11.5% 26.0%  2.0%  3.6%  0.8%
[info]: mb I  I16..4: 13.2% 68.6% 18.2%
[info]: mb P  I16..4:  2.0% 23.5%  3.1%  P16..4: 28.0% 23.6% 12.1%  0.0%  0.0%    skip: 7.6%
[info]: mb B  I16..4:  0.2%  2.2%  0.4%  B16..8: 38.7% 14.5%  3.7%  direct: 8.0%  skip:32.2%  L0:40.9% L1:43.2% BI:15.9%
[info]: 8x8 transform intra:79.9% inter:62.5%
[info]: direct mvs  spatial:99.8% temporal:0.2%
[info]: coded y,uvDC,uvAC intra: 87.2% 85.9% 70.3% inter: 29.4% 26.1% 5.0%
[info]: i16 v,h,dc,p: 32% 12% 18% 39%
[info]: i8 v,h,dc,ddl,ddr,vr,hd,vl,hu: 15% 12% 14%  7% 10% 10% 10% 10% 12%
[info]: i4 v,h,dc,ddl,ddr,vr,hd,vl,hu: 30% 12%  5%  6% 11% 10% 10%  7%  8%
[info]: i8c dc,h,v,p: 38% 25% 22% 15%
[info]: Weighted P-Frames: Y:3.0%
[info]: ref P L0: 46.5% 11.4% 18.1%  5.9%  5.2%  3.4%  3.2%  1.7%  1.7%  1.4%  1.4%  0.1%  0.0%
[info]: ref B L0: 79.9%  9.8%  3.8%  2.0%  1.4%  1.1%  0.9%  0.6%  0.4%  0.2%
[info]: ref B L1: 95.1%  4.9%
[info]: SSIM Mean Y:0.9859753 (18.531db)
[info]: PSNR Mean Y:45.465 U:49.240 V:49.958 Avg:46.383 Global:44.436 kb/s:4047.80

encoded 142794 frames, 2.79 fps, 4047.80 kb/s




Джерела та подяки: &
ріп відео, оригінальні звук та субтитри - Skazhutin (HDClub); українська доріжка - karvai0 - зведення, xSlim - запис з ТБ; українізований постер - Воїн, фільмографії акторів та інформація про озвучення - Віктор (всі - Гуртом).


ЗАЛИШАЙТЕСЬ ЯКОМОГА ДОВШЕ НА РОЗДАЧІ!

СКАЧАВ САМ - ДАЙ СКАЧАТИ ІНШИМ


Срібний реліз (на рейтинг впливає 50% завантаженого)
 Трекер:    Зареєстрований   

Завантажити / скачати фільм українською



відео для новачків



 Зареєстрований:   2014-10-19 17:49
 Розмір:   3.52 GB 
 Оцінка фільму:   5/10 (Голосів: 21)
   
Інші релізи
   Пароль "Риба-Меч" / Swordfish (2001) 1080p Ukr/Eng | Sub Eng igor911  1 / 0   6.82 GB   2014-10-19 17:48 
   Пароль "Риба-Меч" / Swordfish (2001) Ukr/Eng | Sub Eng xslim  2 / 0   1.59 GB   2012-08-03 11:31 
   Пароль "Риба-Меч" / Swordfish (2001) 720p-mini Anonymous  0 / 0   1.5 GB   2011-09-01 22:08 
   Пароль "Риба-Меч" / Swordfish (2001) 1080p-mini Ukr/Eng | Sub Eng DiGen  4 / 0   3.86 GB   2010-12-10 03:56 
   Пароль "Риба-Меч" / Swordfish (2001) Romario_O  4 / 0   1.46 GB   2009-02-24 15:53 
Anonymous 







2014-10-19 17:51  
Вибачаюсь, загубив дужку в назві файлу - довелось перезалити торрент.
zed 
Відео Гуртом - дизайнер
Відео Гуртом - дизайнер


З нами з: 10.12.13
Востаннє: 09.12.16
Повідомлень: 285

2014-10-19 18:40  
Чому не поставили 5.1 з сусіднього релізу?
Anonymous 







2014-10-19 18:47  
Зараз не модно ставити дутий 5.1, де ВСІ звуки з різних каналів дублюються з заміненого центрального каналу. До того ж зробити ЯКІСНИЙ 5.1 дуже важко (виникають такі неприємні явища, як "зламане піаніно", оригінальна озвучка з бокових каналів і т.д.), тому переважна більшість фільмокраїв перейшли на стерео/псевдостерео (для сумісності з залізом).
Ваш часовий пояс: GMT + 2 Години

Нова тема   Відповісти