Завантажити та скачати торренти українською


Пароль "Риба-Меч" / Swordfish (2001) 1080p Ukr/Eng | Sub Eng

Нові коментарі

Нова тема   Відповісти
Автор Повідомлення
Anonymous 







2014-10-19 17:16  
Пароль "Риба-Меч" / Swordfish (2001) 1080p Ukr/Eng | Sub Eng



Оригінальний постер



Жанр: бойовик, трилер, кримінал
Країна: США, Австралія



Кінокомпанія: Jonathan Krane Group, Krane Entertainment, NPV Entertainment, Silver Pictures, Village Roadshow Pictures, Warner Bros.
Режисер: Домінік Сена / Dominic Sena
Актори: Джон Траволта / John Travolta, Г'ю Джекмен / Hugh Jackman, Геллі Беррі / Halle Berry, Дон Чідл / Don Cheadle, Сем Шепард / Sam Shepard, Вінні Джонс / Vinnie Jones, Дреа Де Маттео / Drea de Matteo, Рудольф Мартін / Rudolf Martin, Зак Гренье / Zach Grenier, Камрін Граймс / Camryn Grimes та інші

Сюжет:
Один з найнебезпечніших шпигунів у світі, харизматичний Гебріел Шир, що працював колись на ЦРУ, а нині став геніальним злочинцем, замислює вкрасти 9 мільярдів доларів з нелегальних урядових фондів. Для цього йому потрібна допомога суперхакера, здатного зламати систему безпеки будь-якої комп'ютерної мережі. Таким умільцем є Стенлі Джобсон, який недавно відсидів термін за злам ФБР.

В результаті Джобсон залишився без грошей, без улюбленого заняття, а головне - без улюбленої дочки Холлі. Гебріел та його чарівна партнерка Джінжер заманюють Стенлі в свою зухвалу авантюру, обіцяючи хакерові те, від чого він не може відмовитися - в обмін на виконану роботу він отримає опікунство над дочкою і шанс почати нове життя.

Проте, взявшись за реалізацію цієї складної і ризикованої операції, Стенлі раптом розуміє, що він лише пішак у великій грі.


Рейтинг MPAA: R - особам до 17 років обов'язкова присутність батьків або дорослого опікуна
Вікова категорія: 14+

Тривалість: 01:39:15
Якість: 1080p [CtrlHD]
Відео:
кодек:
розмір кадру: 1920x800
бітрейт: 8820 кбіт/с

Аудіо # 1:
мова: українська
переклад: професійний дубльований
кодек: 2.0
бітрейт: 192 кбіт/с
Інформація про озвучення
Українською мовою фільм дубльовано на замовлення компанії Новий канал, трансляції з цим дубляжем були по Інтеру та ICTV.
Ролі дублювали: Джон Траволта — Олег Лепенець, Г’ю Джекмен — Володимир Терещук, Голлі Беррі — Тетяна Антонова?, Дон Чідл — Дмитро Завадський, Сем Шепард — Анатолій Пашнін, Валерій Легін?, Юрій Коваленко, Вінні Джонс — Георгій Гавриленко, Ярослав Чорненький, Олесь Гімбаржевський, Олена Узлюк та інші.
Аудіо # 2:
мова: англійська
переклад: оригінал
кодек: 5.1
бітрейт: 640 кбіт/с

Аудіо # 3:
мова: англійська
переклад: коментарі з режисером Домініком Сеною
кодек: 2.0
бітрейт: 192 кбіт/с

Субтитри:
мова: англійська
тип: програмні (м'які)
формат: *.srt

Збережено оригінальні розділи, як на Blu-ray.
MediaInfo
Код:
General
Unique ID                                : 196655144557838641036529620882450146239 (0x93F26735A2E12C8086ECC614BAC1E3BF)
Complete name                            : Swordfish (2001) [Ukr,Eng sub.Eng] 1080p [Hurtom & HDClub].mkv
Format                                   : Matroska
Format version                           : Version 4 / Version 2
File size                                : 6.82 GiB
Duration                                 : 1h 39mn
Overall bit rate                         : 9 844 Kbps
Movie name                               : Пароль "Риба-Меч" / Swordfish (2001) 1080p [Hurtom & HDClub]
Encoded date                             : UTC 2014-10-19 12:47:32
Writing application                      : mkvmerge v7.2.0 ('On Every Street') 64bit built on Sep 13 2014 15:52:10
Writing library                          : libebml v1.3.0 + libmatroska v1.4.1
DURATION                                 : 01:32:50.000000000
NUMBER_OF_FRAMES                         : 900
NUMBER_OF_BYTES                          : 32222
_STATISTICS_WRITING_APP                  : mkvmerge v7.2.0 ('On Every Street') 64bit built on Sep 13 2014 15:52:10
_STATISTICS_WRITING_DATE_UTC             : 2014-10-19 12:47:32
_STATISTICS_TAGS                         : BPS DURATION NUMBER_OF_FRAMES NUMBER_OF_BYTES

Video
ID                                       : 1
Format                                   : AVC
Format/Info                              : Advanced Video Codec
Format profile                           : [email protected]
Format settings, CABAC                   : Yes
Format settings, ReFrames                : 5 frames
Codec ID                                 : V_MPEG4/ISO/AVC
Duration                                 : 1h 39mn
Bit rate                                 : 8 820 Kbps
Width                                    : 1 920 pixels
Height                                   : 800 pixels
Display aspect ratio                     : 2.40:1
Frame rate mode                          : Constant
Frame rate                               : 23.976 fps
Color space                              : YUV
Chroma subsampling                       : 4:2:0
Bit depth                                : 8 bits
Scan type                                : Progressive
Bits/(Pixel*Frame)                       : 0.239
Stream size                              : 5.98 GiB (88%)
Title                                    : Пароль "Риба-Меч" / Swordfish / Пароль «Рыба-меч» (2001) 1080p [CtrlHD]
Writing library                          : core 119 r2106kMod 07efeb4
Encoding settings                        : cabac=1 / ref=5 / deblock=1:-3:-3 / analyse=0x3:0x133 / me=umh / subme=11 / psy=1 / fade_compensate=0.00 / psy_rd=1.05:0.05 / mixed_ref=1 / me_range=16 / chroma_me=1 / trellis=2 / 8x8dct=1 / cqm=0 / deadzone=21,11 / fast_pskip=0 / chroma_qp_offset=-3 / threads=6 / sliced_threads=0 / nr=0 / decimate=0 / interlaced=0 / bluray_compat=0 / constrained_intra=0 / bframes=5 / b_pyramid=2 / b_adapt=2 / b_bias=0 / direct=3 / weightb=1 / open_gop=0 / weightp=2 / keyint=250 / keyint_min=23 / scenecut=40 / intra_refresh=0 / rc=2pass / mbtree=0 / bitrate=8820 / ratetol=1.0 / qcomp=0.70 / qpmin=10 / qpmax=51 / qpstep=4 / cplxblur=20.0 / qblur=0.5 / ip_ratio=1.40 / pb_ratio=1.30 / aq=1:0.90
Language                                 : English
Default                                  : Yes
Forced                                   : No
DURATION                                 : 01:39:15.575000000
NUMBER_OF_FRAMES                         : 142791
NUMBER_OF_BYTES                          : 6564023055
_STATISTICS_WRITING_APP                  : mkvmerge v7.2.0 ('On Every Street') 64bit built on Sep 13 2014 15:52:10
_STATISTICS_WRITING_DATE_UTC             : 2014-10-19 12:47:32
_STATISTICS_TAGS                         : BPS DURATION NUMBER_OF_FRAMES NUMBER_OF_BYTES

Audio #1
ID                                       : 2
Format                                   : AC-3
Format/Info                              : Audio Coding 3
Mode extension                           : CM (complete main)
Format settings, Endianness              : Big
Codec ID                                 : A_AC3
Duration                                 : 1h 39mn
Bit rate mode                            : Constant
Bit rate                                 : 192 Kbps
Channel(s)                               : 2 channels
Channel positions                        : Front: L R
Sampling rate                            : 48.0 KHz
Bit depth                                : 16 bits
Compression mode                         : Lossy
Stream size                              : 136 MiB (2%)
Title                                    : Dub [Inter] 2.0 192 kbps [Hurtom-karvai0,xSlim]
Language                                 : Ukrainian
Default                                  : Yes
Forced                                   : No

Audio #2
ID                                       : 3
Format                                   : AC-3
Format/Info                              : Audio Coding 3
Mode extension                           : CM (complete main)
Format settings, Endianness              : Big
Codec ID                                 : A_AC3
Duration                                 : 1h 39mn
Bit rate mode                            : Constant
Bit rate                                 : 640 Kbps
Channel(s)                               : 6 channels
Channel positions                        : Front: L C R, Side: L R, LFE
Sampling rate                            : 48.0 KHz
Bit depth                                : 16 bits
Compression mode                         : Lossy
Stream size                              : 454 MiB (7%)
Title                                    : Original 5.1 640 kbps
Language                                 : English
Default                                  : No
Forced                                   : No

Audio #3
ID                                       : 4
Format                                   : AC-3
Format/Info                              : Audio Coding 3
Format profile                           : Dolby Digital
Mode extension                           : CM (complete main)
Format settings, Endianness              : Big
Codec ID                                 : A_AC3
Duration                                 : 1h 39mn
Bit rate mode                            : Constant
Bit rate                                 : 192 Kbps
Channel(s)                               : 2 channels
Channel positions                        : Front: L R
Sampling rate                            : 48.0 KHz
Bit depth                                : 16 bits
Compression mode                         : Lossy
Stream size                              : 136 MiB (2%)
Title                                    : commentary by Director Dominic Sena 2.0 192 kbps
Language                                 : English
Default                                  : No
Forced                                   : No

Text
ID                                       : 5
Format                                   : UTF-8
Codec ID                                 : S_TEXT/UTF8
Codec ID/Info                            : UTF-8 Plain Text
Language                                 : English
Default                                  : No
Forced                                   : No

Menu
00:00:00.000                             : en:Cinematic Theory
00:04:03.743                             : en:Explosively Wrong Move
00:08:12.033                             : en:Interception at Lax
00:11:47.456                             : en:Ginger Visits
00:15:07.489                             : en:Parental Devotion
00:18:47.042                             : en:Axl in the Box
00:21:58.275                             : en:Gabriel's World
00:24:14.786                             : en:Through the Looking...
00:25:50.090                             : en:Nearly Gone in 60...
00:30:36.000                             : en:Stan's Only Shot
00:34:01.289                             : en:A Deal
00:37:44.262                             : en:Holly's Ride
00:42:11.654                             : en:Way Over His Head
00:46:48.305                             : en:Ginger Off Guard
00:49:12.824                             : en:Operation Swordfish
00:51:52.275                             : en:Worm and a Rottweiler
00:55:27.324                             : en:Hackstasy
00:58:32.509                             : en:Hitting the Hit Squad
01:03:18.544                             : en:Executed for Treason
01:05:53.616                             : en:War Costs
01:09:19.989                             : en:Bank Crash
01:11:11.433                             : en:Daughter in Danger
01:15:24.895                             : en:Ginger Snapped
01:20:09.095                             : en:Misdirection
01:23:15.782                             : en:Bus That Could Fly
01:26:55.960                             : en:Stan's Ending
01:29:01.336                             : en:Flashback
01:30:59.454                             : en:Travel Partners
01:33:29.520                             : en:End Credits




Джерела та подяки: &
ріп відео, оригінальні звук та субтитри - CtrlHD (HDbits), madoff (HDClub); українська доріжка - karvai0 - зведення, xSlim - запис з ТБ; українізований постер - Воїн, фільмографії акторів та інформація про озвучення - Віктор (всі - Гуртом).


ЗАЛИШАЙТЕСЬ ЯКОМОГА ДОВШЕ НА РОЗДАЧІ!

СКАЧАВ САМ - ДАЙ СКАЧАТИ ІНШИМ


Срібний реліз (на рейтинг впливає 50% завантаженого)
 Трекер:    Зареєстрований   

Завантажити / скачати фільм українською



відео для новачків



 Зареєстрований:   2014-10-19 17:48
 Розмір:   6.82 GB 
 Оцінка фільму:   4.4/10 (Голосів: 17)
   
Інші релізи
   Пароль "Риба-Меч" / Swordfish (2001) 720p Ukr/Eng | Sub Eng igor911  3 / 0   3.52 GB   2014-10-19 17:49 
   Пароль "Риба-Меч" / Swordfish (2001) Ukr/Eng | Sub Eng xslim  3 / 0   1.59 GB   2012-08-03 11:31 
   Пароль "Риба-Меч" / Swordfish (2001) 720p-mini Anonymous  0 / 0   1.5 GB   2011-09-01 22:08 
   Пароль "Риба-Меч" / Swordfish (2001) 1080p-mini Ukr/Eng | Sub Eng DiGen  1 / 0   3.86 GB   2010-12-10 03:56 
   Пароль "Риба-Меч" / Swordfish (2001) Romario_O  2 / 0   1.46 GB   2009-02-24 15:53 
Ваш часовий пояс: GMT + 2 Години

Нова тема   Відповісти