Завантажити та скачати торренти українською


Костолом / Mean Machine (2001) 1080і Ukr/Eng | Sub Eng

Нові коментарі

Нова тема   Відповісти
Останній раз роздавалося bivis (2016-12-05)
Автор Повідомлення
ProgBassing 
Відео Гуртом - фільмокрай
Відео Гуртом - фільмокрай


З нами з: 08.03.08
Востаннє: 09.12.16
Повідомлень: 608

2014-10-18 13:06  
Костолом / Mean Machine (2001) 1080і Ukr/Eng | Sub Eng



Жанр: драматична спортивна комедія
Країна: Обєднане Королівство Великобританії



Режисер: Барі Сколник (Barry Skolnick)
Актори: Віні Джонз / Vinnie Jones, Девід Келі (David Kelly), Девід Гемінз (David Hemmings), Ралф Браун (Ralph Brown), Вес Блеквуд (Vas Blackwood), Робі Джи (Robbie Gee), Джеф Белл (Geoff Bell), Джон Фоем (John Forgeham), Саллі Філіпс (Sally Phillips), Джейсон Флемін (Jason Flemyng), Дені Дає (Danny Dyer), Джейсон Стетем / Jason Statham

Сюжет:
Денні Мін, капітан англійської національної футбольної команди, якого було виключено з команди за зраду в матчі між Англією та Німеччиною, отримує вирок ув'язнення на три роки у в'язниці Лонгмарш (Longmarsh) після нападу в нетверезому стані на двох офіцерів поліції.
Але як виявилося саме до цієї в'язниці Мін потрапляє завдяки старанням її власника, що має свою команду з футболу в якій грають працівники закладу, а тренує їх начальник в'язниці Лонгмарш, однак тренер з нього гірший ніж якби це був Денні Мін, тоді тюремна футбольна команда імовірно почала б вигравати. Та от біда, діючий тренер не хоче поступатися своїм місцем і єдине рішення яке може врятувати ситуацію й самого Міна є матч між тюремниками й наглядачами Лонгмарш.


Тривалість: 01:35:08
Якість: 1080i

Відео:
кодек:
розмір кадру: 1920x1080
бітрейт: 8700 кб/с

Аудіо # 1:
мова: українська
переклад: двоголосний закадровий
кодек: MP3 2.0
бітрейт: 192 кб/с

Аудіо # 2:
мова: англійська
переклад: оригінал
кодек: 5.1
бітрейт: 348 кб/с

Субтитри:
мова: англійська
тип: програмні (м'які)
формат: *.srt
MediaInfo
General
Unique ID : 202888719119966752076185083017316100734 (0x98A2F229FC5946A794C2A5D0D2C56A7E)
Complete name : D:\=- CINEMA\TO UPLOAD\[Hurtom]Mean Machine [UKR+ENG] 2001 1080i.mkv
Format : Matroska
Format version : Version 4 / Version 2
File size : 6.33 GiB
Duration : 1h 35mn
Overall bit rate mode : Variable
Overall bit rate : 9 533 Kbps
Movie name : by Waldek for SceneTime
Encoded date : UTC 2014-10-18 09:04:51
Writing application : mkvmerge v6.2.0 ('Promised Land') built on Apr 28 2013 12:22:01
Writing library : libebml v1.3.0 + libmatroska v1.4.0

Video
ID : 1
Format : AVC
Format/Info : Advanced Video Codec
Format profile : [email protected]
Format settings, CABAC : Yes
Format settings, ReFrames : 4 frames
Codec ID : V_MPEG4/ISO/AVC
Bit rate mode : Variable
Bit rate : 8 767 Kbps
Maximum bit rate : 40.0 Mbps
Width : 1 920 pixels
Height : 1 080 pixels
Display aspect ratio : 16:9
Frame rate mode : Variable
Original frame rate : 25.000 fps
Color space : YUV
Chroma subsampling : 4:2:0
Bit depth : 8 bits
Scan type : Interlaced
Default : Yes
Forced : No

Audio #1
ID : 2
Format : MPEG Audio
Format version : Version 1
Format profile : Layer 3
Codec ID : A_MPEG/L3
Codec ID/Hint : MP3
Duration : 1h 35mn
Bit rate mode : Constant
Bit rate : 192 Kbps
Channel count : 2 channels
Sampling rate : 44.1 KHz
Compression mode : Lossy
Stream size : 131 MiB (2%)
Title : 1+1
Language : Ukrainian
Default : Yes
Forced : No

Audio #2
ID : 3
Format : AC-3
Format/Info : Audio Coding 3
Mode extension : CM (complete main)
Format settings, Endianness : Big
Codec ID : A_AC3
Duration : 1h 35mn
Bit rate mode : Constant
Bit rate : 384 Kbps
Channel count : 6 channels
Channel positions : Front: L C R, Side: L R, LFE
Sampling rate : 48.0 KHz
Bit depth : 16 bits
Compression mode : Lossy
Stream size : 261 MiB (4%)
Language : English
Default : No
Forced : No

Text
ID : 4
Format : UTF-8
Codec ID : S_TEXT/UTF8
Codec ID/Info : UTF-8 Plain Text
Language : English
Default : No
Forced : No
Скріншоти:

Джерело: + seedpeer.me

Особиста оцінка фільму: 9 - фільм про контраст людських цінностей + вдало адаптований римейк
Особиста оцінка перекладу: 9 - 1+1 високопрофесійно перекладають екранізовані ними фільми, бо поважають свого глядача!


Срібний реліз (на рейтинг впливає 50% завантаженого)
 Трекер:    Зареєстрований   

Завантажити / скачати фільм українською



відео для новачків



 Зареєстрований:   2014-10-18 13:07
 Розмір:   6.33 GB 
 Оцінка фільму:   9.9/10 (Голосів: 9)
   
Інші релізи
   Костолом / Mean Machine (2001) 2xUkr/Eng | Sub Eng robotron005  1 / 0   2.18 GB   2010-07-17 10:38 
   Костолом / Mean Machine (2001) UKR/ENG ProgBassing  0 / 0   1.47 GB   2008-09-16 21:20 
igor911 
Відео Гуртом
Відео Гуртом


З нами з: 18.01.08
Востаннє: 10.12.16
Повідомлень: 5212

2014-10-18 14:38  
MediaInfo обов"язкове, також не забудь, що скріншоти треба в png. І вкажи джерело укр.доріжки. Чому її не зробив у 2.0 192 kbps?

Додано через 4 хвилини 44 секунди:

Назва має бути "Костолом / Mean Machine (2001) 1080і Ukr/Eng | Sub Eng"
Чому не додав українську багатоголосу доріжку від ТВ+?

10alexs 
VIP


З нами з: 26.02.09
Востаннє: 10.12.16
Повідомлень: 296

2014-10-18 14:45  
Цитата:
Обєднане Королівство
Цитата:
1+1 високопрофесійно перекладають екранізовані ними фільми

Об'єднаних королівст багато. Та й 1080і... краще вже 720р

ProgBassing 
Відео Гуртом - фільмокрай
Відео Гуртом - фільмокрай


З нами з: 08.03.08
Востаннє: 09.12.16
Повідомлень: 608

2014-10-18 19:01  
Без відбитків - все підправив... крім невиправного Wink (1)
igor911 
Відео Гуртом
Відео Гуртом


З нами з: 18.01.08
Востаннє: 10.12.16
Повідомлень: 5212

2014-10-18 21:55  
ProgBassing написано:
все підправив

А скріншоти?

ProgBassing 
Відео Гуртом - фільмокрай
Відео Гуртом - фільмокрай


З нами з: 08.03.08
Востаннє: 09.12.16
Повідомлень: 608

2014-10-18 21:58  
Та ж сказав, що все, але без відбитків - завтра привішу.
igor911 
Відео Гуртом
Відео Гуртом


З нами з: 18.01.08
Востаннє: 10.12.16
Повідомлень: 5212

2014-10-18 21:59  
я не допетрав одразу,що за відбитки Wink (1)
ProgBassing 
Відео Гуртом - фільмокрай
Відео Гуртом - фільмокрай


З нами з: 08.03.08
Востаннє: 09.12.16
Повідомлень: 608

2014-10-19 17:10  
Скріни підняті за всіма правилами - реліз дооформлено!
igor911 
Відео Гуртом
Відео Гуртом


З нами з: 18.01.08
Востаннє: 10.12.16
Повідомлень: 5212

2014-10-19 17:13  
Для повноти картини додав лінки на фільмографії Вінні Джонса та Джейсона Стетхема.
ProgBassing 
Відео Гуртом - фільмокрай
Відео Гуртом - фільмокрай


З нами з: 08.03.08
Востаннє: 09.12.16
Повідомлень: 608

2014-10-19 17:22  
Ок, дякую, тільки вони все ж таки Віні Джонз і Джейсон Стетем - так правильно! Neutral
Ваш часовий пояс: GMT + 2 Години

Нова тема   Відповісти