Завантажити та скачати торренти українською


Скандальний щоденник / Notes on a scandal (2006) Ukr/Eng | Sub Ukr/Eng

Нові коментарі

Нова тема   Відповісти
Автор Повідомлення
Anonymous 







2014-10-18 11:58  
Скандальний щоденник / Notes on a scandal (2006) Ukr/Eng | Sub Ukr/Eng



Жанр: трилер, драма
Країна: Велика Британія



Кінокомпанія: Fox Searchlight Pictures, DNA Films, UK Film Council
Режисер: Річард Айр / Richard Eyre
Актори: Джуді Денч / Judi Dench, Кейт Бланшет / Cate Blanchett, Том Джорджсон / Tom Georgeson, Майкл Мелоуні / Michael Maloney, Джоенна Скенлен / Joanna Scanlan, Шон Паркес / Shaun Parkes, Емма Кеннеді / Emma Kennedy, Сіріта Кумар / Syreeta Kumar, Ендрю Сімпсон / Andrew Simpson, Філіп Девіс / Philip Davis та інші

Сюжет:
Викладачка гуманітарних наук Шеба Харт заводить роман зі своїм п'ятнадцятирічним учнем. Таємний зв'язок погрожує стати надбанням громадськості, коли про це дізнається інша викладачка на ім'я Барбара ...


Рейтинг MPAA: R - особам до 17 років обов'язкова присутність батьків або дорослого опікуна
Вікова категорія: 14+

Тривалість: 01:31:47
Якість:
Відео:
кодек: build 65
розмір кадру: 704x384
бітрейт: 1806 кбіт/с

Аудіо # 1:
мова: українська
переклад: двоголосий закадровий
ролі озвучили: Лідія Муращенко та Олег Лепенець
кодек: 2.0
бітрейт: 192 кбіт/с

Аудіо # 2:
мова: англійська
переклад: оригінал
кодек: 5.1
бітрейт: 448 кбіт/с

Субтитри :
мова: українська (завантажити), англійська (завантажити)
тип: програмні (м'які)
формат: *.srt
MediaInfo
Код:
General
Complete name                            : F:\Data6f\RelF\Notes on a Scandal (2006) [Ukr,Eng] [Hurtom & HQClub].avi
Format                                   : AVI
Format/Info                              : Audio Video Interleave
File size                                : 1.58 GiB
Duration                                 : 1h 31mn
Overall bit rate                         : 2 461 Kbps
Movie name                               : Скандальний щоденник / Notes on a Scandal / Скандальный дневник (2006)
Director                                 : RosXXX, igor911  (Hurtom.com); sociolog_melvas (HQClub)
Genre                                    : трилер, драма
Writing application                      : VirtualDubModRus 1.5.10.2 (build 2540/release)
Writing library                          : VirtualDubMod build 2540/release
Copyright                                : Hurtom.com & HQClub.net
Comment                                  : 18.10.2014

Video
ID                                       : 0
Format                                   : MPEG-4 Visual
Format profile                           : Advanced [email protected]
Format settings, BVOP                    : 1
Format settings, QPel                    : No
Format settings, GMC                     : No warppoints
Format settings, Matrix                  : Custom
Codec ID                                 :
Codec ID/Hint                            :
Duration                                 : 1h 31mn
Bit rate                                 : 1 807 Kbps
Width                                    : 704 pixels
Height                                   : 384 pixels
Display aspect ratio                     : 1.85:1
Frame rate                               : 23.976 fps
Color space                              : YUV
Chroma subsampling                       : 4:2:0
Bit depth                                : 8 bits
Scan type                                : Progressive
Compression mode                         : Lossy
Bits/(Pixel*Frame)                       : 0.279
Stream size                              : 1.16 GiB (73%)
Writing library                          : 65

Audio #1
ID                                       : 1
Format                                   : AC-3
Format/Info                              : Audio Coding 3
Mode extension                           : CM (complete main)
Format settings, Endianness              : Big
Codec ID                                 : 2000
Duration                                 : 1h 31mn
Bit rate mode                            : Constant
Bit rate                                 : 192 Kbps
Channel(s)                               : 2 channels
Channel positions                        : Front: L R
Sampling rate                            : 48.0 KHz
Bit depth                                : 16 bits
Compression mode                         : Lossy
Stream size                              : 126 MiB (8%)
Alignment                                : Split accross interleaves
Interleave, duration                     : 42 ms (1.00 video frame)
Interleave, preload duration             : 500 ms

Audio #2
ID                                       : 2
Format                                   : AC-3
Format/Info                              : Audio Coding 3
Mode extension                           : CM (complete main)
Format settings, Endianness              : Big
Codec ID                                 : 2000
Duration                                 : 1h 31mn
Bit rate mode                            : Constant
Bit rate                                 : 448 Kbps
Channel(s)                               : 6 channels
Channel positions                        : Front: L C R, Side: L R, LFE
Sampling rate                            : 48.0 KHz
Bit depth                                : 16 bits
Compression mode                         : Lossy
Stream size                              : 294 MiB (18%)
Alignment                                : Split accross interleaves
Interleave, duration                     : 42 ms (1.00 video frame)
Interleave, preload duration             : 500 ms




Джерела та подяки: &
ріп відео - sociolog_melvas (HQClub); українська доріжка - RosXXX - зведення, MAKAPOHHIK - запис з ТБ; українські субтитри - RuFіlms [ліцензійний DVD R5], igor911 - витягнення та розпізнавання (всі - Гуртом).


ЗАЛИШАЙТЕСЬ ЯКОМОГА ДОВШЕ НА РОЗДАЧІ!

СКАЧАВ САМ - ДАЙ СКАЧАТИ ІНШИМ


 Трекер:    Зареєстрований   

Завантажити / скачати фільм українською



відео для новачків



 Зареєстрований:   2014-10-18 11:58
 Розмір:   1.58 GB 
 Оцінка фільму:   3.9/10 (Голосів: 15)
   
Інші релізи
Ваш часовий пояс: GMT + 2 Години

Нова тема   Відповісти