Завантажити та скачати торренти українською


Скандальний щоденник / Notes on a scandal (2006) 720p Ukr/Eng | Sub Ukr/Eng/Fra

Нові коментарі

Нова тема   Відповісти
Автор Повідомлення
Anonymous 







2014-10-18 10:39  
Скандальний щоденник / Notes on a scandal (2006) 720p Ukr/Eng | Sub Ukr/Eng/Fra



Жанр: трилер, драма
Країна: Велика Британія



Кінокомпанія: Fox Searchlight Pictures, DNA Films, UK Film Council
Режисер: Річард Айр / Richard Eyre
Актори: Джуді Денч / Judi Dench, Кейт Бланшет / Cate Blanchett, Том Джорджсон / Tom Georgeson, Майкл Мелоуні / Michael Maloney, Джоенна Скенлен / Joanna Scanlan, Шон Паркес / Shaun Parkes, Емма Кеннеді / Emma Kennedy, Сіріта Кумар / Syreeta Kumar, Ендрю Сімпсон / Andrew Simpson, Філіп Девіс / Philip Davis та інші

Сюжет:
Викладачка гуманітарних наук Шеба Харт заводить роман зі своїм п'ятнадцятирічним учнем. Таємний зв'язок погрожує стати надбанням громадськості, коли про це дізнається інша викладачка на ім'я Барбара ...


Рейтинг MPAA: R - особам до 17 років обов'язкова присутність батьків або дорослого опікуна
Вікова категорія: 14+

Тривалість: 01:31:47
Якість: 720p [TayTO]
Джерело: Notes on a Scandal 2006 1080p Blu-ray AVC -HD MA 5.1-PCH
Відео:
кодек:
розмір кадру: 1280 x 694
бітрейт: 9173 кбіт/с [crf=17.4]

Аудіо # 1:
мова: українська
переклад: двоголосий закадровий
ролі озвучили: Лідія Муращенко та Олег Лепенець
кодек: 2.0
бітрейт: 192 кбіт/с

Аудіо # 2:
мова: англійська
переклад: оригінал
кодек: 5.1
бітрейт: 1509 кбіт/с

Аудіо # 3:
мова: англійська
переклад: коментарі
кодек: 2.0
бітрейт: 224 кбіт/с

Субтитри #1:
мова: українська
тип: програмні (м'які)
формат: *.srt

Субтитри #2-3:
мова: англійська (повні, коментарі)
тип: програмні (м'які)
формат: *.srt

Субтитри #4-5:
мова: французька (повні, коментарі)
тип: програмні (м'які)
формат: *.srt

Збережено оригінальні розділи, як на Blu-ray.
MediaInfo
Код:
General
Unique ID                                : 171691543419693941935873242748805415197 (0x812A96A5C60D2ECBB2B0AEA34297811D)
Complete name                            : Notes on a Scandal (2006) [Ukr,Eng sub.Ukr,Eng,Fre] 720p [Hurtom & HDClub].mkv
Format                                   : Matroska
Format version                           : Version 4 / Version 2
File size                                : 7.26 GiB
Duration                                 : 1h 31mn
Overall bit rate                         : 11.3 Mbps
Movie name                               : Скандальний щоденник / Notes on a Scandal (2006) 720p [Hurtom & HDCLUB]
Encoded date                             : UTC 2014-10-17 22:31:54
Writing application                      : mkvmerge v7.2.0 ('On Every Street') 64bit built on Sep 13 2014 15:52:10
Writing library                          : libebml v1.3.0 + libmatroska v1.4.1
DURATION                                 : 01:31:02.590000000
NUMBER_OF_FRAMES                         : 1069
NUMBER_OF_BYTES                          : 65521
_STATISTICS_WRITING_APP                  : mkvmerge v7.2.0 ('On Every Street') 64bit built on Sep 13 2014 15:52:10
_STATISTICS_WRITING_DATE_UTC             : 2014-10-17 22:31:54
_STATISTICS_TAGS                         : BPS DURATION NUMBER_OF_FRAMES NUMBER_OF_BYTES

Video
ID                                       : 1
Format                                   : AVC
Format/Info                              : Advanced Video Codec
Format profile                           : [email protected]
Format settings, CABAC                   : Yes
Format settings, ReFrames                : 9 frames
Codec ID                                 : V_MPEG4/ISO/AVC
Duration                                 : 1h 31mn
Bit rate                                 : 9 173 Kbps
Width                                    : 1 280 pixels
Height                                   : 694 pixels
Display aspect ratio                     : 1.85:1
Frame rate mode                          : Constant
Frame rate                               : 23.976 fps
Color space                              : YUV
Chroma subsampling                       : 4:2:0
Bit depth                                : 8 bits
Scan type                                : Progressive
Bits/(Pixel*Frame)                       : 0.431
Stream size                              : 5.88 GiB (81%)
Title                                    : Скандальний щоденник / Notes on a Scandal / Скандальный дневник (2006) 720p [TayTO]
Writing library                          : core 142 r2389kMod 956c8d8
Encoding settings                        : cabac=1 / ref=9 / deblock=1:-3:-3 / analyse=0x3:0x133 / me=tesa / subme=11 / psy=1 / fade_compensate=0.00 / psy_rd=1.10:0.00 / mixed_ref=1 / me_range=24 / chroma_me=1 / trellis=2 / 8x8dct=1 / cqm=0 / deadzone=21,11 / fast_pskip=0 / chroma_qp_offset=-2 / threads=12 / lookahead_threads=3 / sliced_threads=0 / nr=0 / decimate=1 / interlaced=0 / bluray_compat=0 / constrained_intra=0 / fgo=0 / bframes=11 / b_pyramid=2 / b_adapt=2 / b_bias=0 / direct=3 / weightb=1 / open_gop=0 / weightp=2 / keyint=250 / keyint_min=23 / scenecut=40 / intra_refresh=0 / rc=crf / mbtree=0 / crf=17.4000 / qcomp=0.70 / qpmin=0 / qpmax=69 / qpstep=4 / ip_ratio=1.30 / pb_ratio=1.20 / aq=1:0.65
Language                                 : English
Default                                  : Yes
Forced                                   : No
Matrix coefficients                      : BT.709
DURATION                                 : 01:31:47.127000000
NUMBER_OF_FRAMES                         : 132039
NUMBER_OF_BYTES                          : 6467376789
_STATISTICS_WRITING_APP                  : mkvmerge v7.2.0 ('On Every Street') 64bit built on Sep 13 2014 15:52:10
_STATISTICS_WRITING_DATE_UTC             : 2014-10-17 22:31:54
_STATISTICS_TAGS                         : BPS DURATION NUMBER_OF_FRAMES NUMBER_OF_BYTES

Audio #1
ID                                       : 2
Format                                   : AC-3
Format/Info                              : Audio Coding 3
Mode extension                           : CM (complete main)
Format settings, Endianness              : Big
Codec ID                                 : A_AC3
Duration                                 : 1h 31mn
Bit rate mode                            : Constant
Bit rate                                 : 192 Kbps
Channel(s)                               : 2 channels
Channel positions                        : Front: L R
Sampling rate                            : 48.0 KHz
Bit depth                                : 16 bits
Compression mode                         : Lossy
Stream size                              : 126 MiB (2%)
Title                                    : DVO [1+1] 2.0 192 kbps [Hurtom-RosXXX]
Language                                 : Ukrainian
Default                                  : Yes
Forced                                   : No

Audio #2
ID                                       : 3
Format                                   :
Format/Info                              : Digital Theater Systems
Mode                                     : 16
Format settings, Endianness              : Big
Codec ID                                 : A_DTS
Duration                                 : 1h 31mn
Bit rate mode                            : Constant
Bit rate                                 : 1 509 Kbps
Channel(s)                               : 6 channels
Channel positions                        : Front: L C R, Side: L R, LFE
Sampling rate                            : 48.0 KHz
Bit depth                                : 24 bits
Compression mode                         : Lossy
Stream size                              : 991 MiB (13%)
Title                                    : Original 5.1 1509 kbps
Language                                 : English
Default                                  : No
Forced                                   : No

Audio #3
ID                                       : 4
Format                                   : AC-3
Format/Info                              : Audio Coding 3
Mode extension                           : CM (complete main)
Format settings, Endianness              : Big
Codec ID                                 : A_AC3
Duration                                 : 1h 31mn
Bit rate mode                            : Constant
Bit rate                                 : 224 Kbps
Channel(s)                               : 2 channels
Channel positions                        : Front: L R
Sampling rate                            : 48.0 KHz
Bit depth                                : 16 bits
Compression mode                         : Lossy
Stream size                              : 147 MiB (2%)
Title                                    : Commentary 2.0 224 kbps
Language                                 : English
Default                                  : No
Forced                                   : No

Text #1
ID                                       : 5
Format                                   : UTF-8
Codec ID                                 : S_TEXT/UTF8
Codec ID/Info                            : UTF-8 Plain Text
Title                                    : Ukr full [DVD R5 - RuFіlms, OCR: Hurtom-igor911]
Language                                 : Ukrainian
Default                                  : No
Forced                                   : No

Text #2
ID                                       : 6
Format                                   : UTF-8
Codec ID                                 : S_TEXT/UTF8
Codec ID/Info                            : UTF-8 Plain Text
Title                                    : Eng full
Language                                 : English
Default                                  : No
Forced                                   : No

Text #3
ID                                       : 7
Format                                   : UTF-8
Codec ID                                 : S_TEXT/UTF8
Codec ID/Info                            : UTF-8 Plain Text
Title                                    : Eng Commentary
Language                                 : English
Default                                  : No
Forced                                   : No

Text #4
ID                                       : 8
Format                                   : UTF-8
Codec ID                                 : S_TEXT/UTF8
Codec ID/Info                            : UTF-8 Plain Text
Title                                    : French full
Language                                 : French
Default                                  : No
Forced                                   : No

Text #5
ID                                       : 9
Format                                   : UTF-8
Codec ID                                 : S_TEXT/UTF8
Codec ID/Info                            : UTF-8 Plain Text
Title                                    : French Commentary
Language                                 : French
Default                                  : No
Forced                                   : No

Menu #1
00:00:00.000                             : en:00:00:00.000
00:04:22.596                             : en:00:04:22.596
00:10:58.199                             : en:00:10:58.199
00:16:02.795                             : en:00:16:02.795
00:19:57.029                             : en:00:19:57.029
00:22:40.150                             : en:00:22:40.150
00:25:41.999                             : en:00:25:41.999
00:32:19.229                             : en:00:32:19.229
00:37:47.390                             : en:00:37:47.390
00:44:08.688                             : en:00:44:08.688
00:46:56.188                             : en:00:46:56.188
00:50:14.345                             : en:00:50:14.345
00:52:35.152                             : en:00:52:35.152
00:57:06.715                             : en:00:57:06.715
00:59:34.613                             : en:00:59:34.613
01:09:07.560                             : en:01:09:07.560
01:13:21.439                             : en:01:13:21.439
01:16:57.238                             : en:01:16:57.238
01:23:09.484                             : en:01:23:09.484
01:26:07.621                             : en:01:26:07.621

Menu #2
00:00:00.054                             : en:00:00:00.054




Джерела та подяки: &
ріп відео, оригінальні звук та субтитри - TayTO (HDbits), madoff (HDClub); українська доріжка - RosXXX - зведення, MAKAPOHHIK - запис з ТБ; українські субтитри - RuFіlms [ліцензійний DVD R5], igor911 - витягнення та розпізнавання (всі - Гуртом).


ЗАЛИШАЙТЕСЬ ЯКОМОГА ДОВШЕ НА РОЗДАЧІ!

СКАЧАВ САМ - ДАЙ СКАЧАТИ ІНШИМ


 Трекер:    Зареєстрований   

Завантажити / скачати фільм українською



відео для новачків



 Зареєстрований:   2014-10-18 10:39
 Розмір:   7.26 GB 
 Оцінка фільму:   3.5/10 (Голосів: 14)
   
Інші релізи
Anonymous 







2014-10-18 11:00  
у SD 480p (avi): http://toloka.to/t59918
Щодо укр.сабів - то вони далекі від ідеала (та й чого можна чекати від кантори з назвою RuFіlms, що їх зробила), таке враження, що їх додали на ліцензійний DVD від "Двадцяте Століття Фокс СНД" аби було.

Ваш часовий пояс: GMT + 2 Години

Нова тема   Відповісти