Завантажити та скачати торренти українською


Команда мрії / Les seigneurs (2012) 720p 2xUkr/Fra | Sub Ukr/Fra/Eng

Нові коментарі

Нова тема   Відповісти
Автор Повідомлення
Anonymous 







2014-10-12 14:18  
Команда мрії / Les seigneurs (2012) 720p 2xUkr/Fra | Sub Ukr/Fra/Eng



Жанр: комедія, спорт
Країна: Франція



Кінокомпанія: Vito Films, Od Shots, TF1 Films Production, Canal+, Ciné+, TF1
Режисер: Олів'є Даан / Olivier Dahan
Актори: Хосе Ґарсія / José Garcia, Жан-П'єр Маріель /Jean-Pierre Marielle, Франк Дюбоск / Franck Dubosc, Ґад Ельмалех / Gad Elmaleh, Джої Старр / Joey Starr, Рамзі Бедіа / Ramzy Bedia, Омар Сі / Omar Sy, Самі Амезьян / Sami Ameziane, Клементін Берт / Clémentine Baert, Фредерік Бель / Frédérique Bel, Жан Рено / Jean Reno та інші

Сюжет:
Патрік - у минулому відомий футболіст і тренер, а зараз просто п'яниця. Єдина робота, яку він може отримати - це тренер любительської футбольної команди на півночі Франції. І відмовитися не можна, якщо у нього не буде роботи, його позбавлять опікунства над дочкою. Справи на футбольній ниві у аматорів йдуть ненайкраще. І тоді Патріку в голову приходить геніальна ідея - запросити в команду колишніх футбольних зірок!


Вікова категорія: 12+

Тривалість: 01:36:56
Якість: 720p
Відео:
кодек:
розмір кадру: 1280 х 640
бітрейт: 4943 кбіт/с

Аудіо # 1:
мова: українська
переклад: багатоголосий закадровий - ААА-sound
кодек: 5.1
бітрейт: 448 кбіт/с
Інформація про озвучення
Ролі озвучили: Михайло Жонін, Андрій Альохін, Юлія Перенчук, Андрій Федінчик, Андрій Федінчик, Дмитро Завадський, Ірина Грей, Анатолій Зіновенко, Олександр Єфімов та інші.
Режисер: Олександр Єфімов

Фільм озвучено студією ААА-sound у 2013 році, на замовлення компанії Каскад Україна.
Аудіо # 2:
мова: українська
переклад: багатоголосий закадровий
ролі озвучили: Юрій Гребельник, Євген Пашин, Роман Чорний та Марина Локтіонова
кодек: 2.0
бітрейт: 192 кбіт/с

Аудіо # 3:
мова: французька
переклад: оригінал
кодек: 5.1
бітрейт: 1509 кбіт/с

Субтитри # 1:
мова: українська
тип: програмні (м'які)
формат: *.srt

Субтитри # 2:
мова: французька
тип: програмні (м'які)
формат: *.srt

Субтитри # 3:
мова: англійська
тип: програмні (м'які)
формат: *.srt
MediaInfo
Код:
General
Unique ID                   : 239490289043778312759663566234540005841 (0xB42C26E34EB6327EA67198B29D2F59D1)
Complete name               : H:\Data2\!RelH\Les seigneurs (2012) [2xUkr,Fre sub.Ukr,Fre,Eng] 720p [Hurtom].mkv
Format                      : Matroska
Format version              : Version 4 / Version 2
File size                   : 4.80 GiB
Duration                    : 1h 36mn
Overall bit rate            : 7 095 Kbps
Movie name                  : Команда мрії / Les seigneurs (2012) [2xUkr,Fre sub.Ukr,Fre,Eng] 720p [Hurtom]
Encoded date                : UTC 2014-12-19 15:35:42
Writing application         : mkvmerge v7.4.0 ('Circles') 64bit built on Dec 12 2014 12:19:56
Writing library             : libebml v1.3.0 + libmatroska v1.4.1
DURATION                    : 01:36:56.544000000
NUMBER_OF_FRAMES            : 181767
NUMBER_OF_BYTES             : 325726464
_STATISTICS_WRITING_APP     : mkvmerge v7.4.0 ('Circles') 64bit built on Dec 12 2014 12:19:56
_STATISTICS_WRITING_DATE_UT : 2014-12-19 15:35:42
_STATISTICS_TAGS            : BPS DURATION NUMBER_OF_FRAMES NUMBER_OF_BYTES

Video
ID                          : 1
Format                      : AVC
Format/Info                 : Advanced Video Codec
Format profile              : [email protected]
Format settings, CABAC      : Yes
Format settings, ReFrames   : 5 frames
Codec ID                    : V_MPEG4/ISO/AVC
Duration                    : 1h 36mn
Bit rate                    : 4 943 Kbps
Width                       : 1 280 pixels
Height                      : 640 pixels
Display aspect ratio        : 2.000
Frame rate mode             : Constant
Frame rate                  : 23.976 fps
Color space                 : YUV
Chroma subsampling          : 4:2:0
Bit depth                   : 8 bits
Scan type                   : Progressive
Bits/(Pixel*Frame)          : 0.252
Stream size                 : 3.25 GiB (68%)
Title                       : Команда мрії / Les seigneurs / Команда мечты (2012) 720p [ULSHD]
Writing library             : core 129 r2230 1cffe9f
Encoding settings           : cabac=1 / ref=5 / deblock=1:0:0 / analyse=0x3:0x113 / me=umh / subme=8 / psy=1 / psy_rd=1.00:0.00 / mixed_ref=1 / me_range=16 / chroma_me=1 / trellis=1 / 8x8dct=1 / cqm=0 / deadzone=21,11 / fast_pskip=1 / chroma_qp_offset=-2 / threads=12 / lookahead_threads=2 / sliced_threads=0 / nr=0 / decimate=1 / interlaced=0 / bluray_compat=0 / constrained_intra=0 / bframes=3 / b_pyramid=2 / b_adapt=2 / b_bias=0 / direct=3 / weightb=1 / open_gop=0 / weightp=2 / keyint=240 / keyint_min=24 / scenecut=40 / intra_refresh=0 / rc_lookahead=50 / rc=2pass / mbtree=1 / bitrate=4943 / ratetol=1.0 / qcomp=0.60 / qpmin=0 / qpmax=69 / qpstep=4 / cplxblur=20.0 / qblur=0.5 / ip_ratio=1.40 / aq=1:1.00
Language                    : French
Default                     : Yes
Forced                      : No
DURATION                    : 01:36:56.561000000
NUMBER_OF_FRAMES            : 139458
NUMBER_OF_BYTES             : 3593502048
_STATISTICS_WRITING_APP     : mkvmerge v7.4.0 ('Circles') 64bit built on Dec 12 2014 12:19:56
_STATISTICS_WRITING_DATE_UT : 2014-12-19 15:35:42
_STATISTICS_TAGS            : BPS DURATION NUMBER_OF_FRAMES NUMBER_OF_BYTES

Audio #1
ID                          : 2
Format                      : AC-3
Format/Info                 : Audio Coding 3
Mode extension              : CM (complete main)
Format settings, Endianness : Big
Codec ID                    : A_AC3
Duration                    : 1h 36mn
Bit rate mode               : Constant
Bit rate                    : 448 Kbps
Channel(s)                  : 6 channels
Channel positions           : Front: L C R, Side: L R, LFE
Sampling rate               : 48.0 KHz
Bit depth                   : 16 bits
Compression mode            : Lossy
Stream size                 : 311 MiB (6%)
Title                       : MVO [AAA Sound] 5.1 448 kbps [Hurtom-Gelios]
Language                    : Ukrainian
Default                     : Yes
Forced                      : No

Audio #2
ID                          : 3
Format                      : AC-3
Format/Info                 : Audio Coding 3
Mode extension              : CM (complete main)
Format settings, Endianness : Big
Codec ID                    : A_AC3
Duration                    : 1h 36mn
Bit rate mode               : Constant
Bit rate                    : 192 Kbps
Channel(s)                  : 2 channels
Channel positions           : Front: L R
Sampling rate               : 48.0 KHz
Bit depth                   : 16 bits
Compression mode            : Lossy
Delay relative to video     : 17ms
Stream size                 : 133 MiB (3%)
Title                       : MVO [NTN] 2.0 192 kbps [Hurtom-Gelios, Sando7][-15ms]
Language                    : Ukrainian
Default                     : No
Forced                      : No

Audio #3
ID                          : 4
Format                      :
Format/Info                 : Digital Theater Systems
Mode                        : 16
Format settings, Endianness : Big
Codec ID                    : A_DTS
Duration                    : 1h 36mn
Bit rate mode               : Constant
Bit rate                    : 1 509 Kbps
Channel(s)                  : 6 channels
Channel positions           : Front: L C R, Side: L R, LFE
Sampling rate               : 48.0 KHz
Bit depth                   : 24 bits
Compression mode            : Lossy
Stream size                 : 1.02 GiB (21%)
Title                       : Original 5.1 1509 kbps
Language                    : French
Default                     : No
Forced                      : No

Text #1
ID                          : 5
Format                      : UTF-8
Codec ID                    : S_TEXT/UTF8
Codec ID/Info               : UTF-8 Plain Text
Title                       : Ukr full [DVD R5, Hurtom-igor911]
Language                    : Ukrainian
Default                     : No
Forced                      : No

Text #2
ID                          : 6
Format                      : UTF-8
Codec ID                    : S_TEXT/UTF8
Codec ID/Info               : UTF-8 Plain Text
Title                       : French full [SDH]
Language                    : French
Default                     : No
Forced                      : No

Text #3
ID                          : 7
Format                      : UTF-8
Codec ID                    : S_TEXT/UTF8
Codec ID/Info               : UTF-8 Plain Text
Title                       : Eng full
Language                    : English
Default                     : No
Forced                      : No




Джерела та подяки:
ріп відео - ULSHD (PublicHD); українські доріжки - Gelios, Sando7 - запис з ТБ (2); українські субтитри - igor911 - витягнення та розпізнавання (всі - Гуртом).


ЗАЛИШАЙТЕСЬ ЯКОМОГА ДОВШЕ НА РОЗДАЧІ!

СКАЧАВ САМ - ДАЙ СКАЧАТИ ІНШИМ


 Трекер:    Зареєстрований   

Завантажити / скачати фільм українською



відео для новачків



 Зареєстрований:   2014-12-19 18:23
 Розмір:   4.8 GB 
 Оцінка фільму:   3.4/10 (Голосів: 14)
   
Інші релізи
   Команда мрії / Les seigneurs (2012) 2xUkr/Fra | Sub Ukr/Fra Gelios  4 / 0   2.18 GB   2014-12-18 16:19 
Anonymous 







2014-10-12 15:02  
Субтитри залив на сервер доріжок.
Anonymous 







2014-12-19 18:26  
Реліз оновлено!
Замінив доріжку від ААА-sound на більш якісну.

Ваш часовий пояс: GMT + 2 Години

Нова тема   Відповісти