Завантажити та скачати торренти українською


Крихітка на мільйон доларів / Million Dollar Baby (2004) 1080p Ukr/Eng | Sub Eng

Нові коментарі

Нова тема   Відповісти
Автор Повідомлення
Anonymous 







2014-10-10 22:15  
Крихітка на мільйон доларів / Million Dollar Baby (2004) 1080p Ukr/Eng | Sub Eng



Українізований постер



Жанр: драма, спорт
Top 250 #188
4 Оскари, 2 Золотих глобуса, 2 премії Гільдії акторів та премія Сезар


Кінокомпанія: США
Режисер: Клінт Іствуд / Clint Eastwood
Актори: Клінт Іствуд / Clint Eastwood, Гіларі Свенк / Hilary Swank, Морган Фріман / Morgan Freeman, Джей Барушель / Jay Baruchel, Майк Колтер / Mike Colter, Люсія Ріжкер / Lucia Rijker, Браян Ф. О'Бірн / Brian F. O'Byrne, Ентоні Макі / Anthony Mackie, Марґо Мартіндейл / Margo Martindale, Майкл Пенья / Michael Peña та інші

Сюжет:
Фільм розповідає про трагічну долю жінки-боксера Мегі Фітцжералд, яка впевнена в тому, що стане зіркою жіночого боксу. Їй вдалося досягти значних успіхів у цьому виді спорту завдяки своїй завзятості та волі до перемоги. У цьому також величезна заслуга літнього тренера, колишнього бійця, який отримав в особі Мегі кращого в своєму житті вихованця. Між ними виникли міцні, майже родинні стосунки, які не отримали розвитку через трагічний випадок на рингу — Мегі отримала перелом шийного хребця. У її тренера складний вибір — допомогти Мегі піти з життя (як вона цього хоче) або допомогти їй боротися за життя.


Тривалість: 02:12:32
Якість: 1080p
Відео:
кодек:
розмір кадру: 1920 х 802
бітрейт: 10500 кбіт/с

Аудіо # 1:
мова: українська
переклад: багатоголосий закадровий
ролі озвучили: Клінт Іствуд — Олег Стальчук, Морґан Фрімен — Юрій Гребельник, Анатолій Пашнін і один жіночий голос
кодек: 2.0
бітрейт: 192 кбіт/с

Аудіо # 2:
мова: англійська
переклад: оригінал
кодек: 5.1
бітрейт: 1509 кбіт/с

Субтитри:
мова: англійська
тип: програмні (м'які)
формат: *.srt
MediaInfo та log
[info]: frame I:1424 Avg QP:14.59 size:193683
[info]: frame P:41012 Avg QP:17.13 size: 94257
[info]: frame B:148230 Avg QP:18.80 size: 42497
Код:
General
Unique ID                                : 196836198039048692267761538727634868879 (0x941545D5D8755CB29466DD98852D1A8F)
Complete name                            : Million Dollar Baby (2004) [Ukr,Eng sub.Eng] 1080p [Hurtom].mkv
Format                                   : Matroska
Format version                           : Version 4 / Version 2
File size                                : 11.3 GiB
Duration                                 : 2h 12mn
Overall bit rate                         : 12.2 Mbps
Movie name                               : Крихітка на мільйон доларів / Million Dollar Baby (2004) 1080p [Hurtom]
Encoded date                             : UTC 2014-10-10 19:26:26
Writing application                      : mkvmerge v7.2.0 ('On Every Street') 64bit built on Sep 13 2014 15:52:10
Writing library                          : libebml v1.3.0 + libmatroska v1.4.1
DURATION                                 : 02:12:31.446000000
NUMBER_OF_FRAMES                         : 745448
NUMBER_OF_BYTES                          : 1499841376
_STATISTICS_WRITING_APP                  : mkvmerge v7.2.0 ('On Every Street') 64bit built on Sep 13 2014 15:52:10
_STATISTICS_WRITING_DATE_UTC             : 2014-10-10 19:26:26
_STATISTICS_TAGS                         : BPS DURATION NUMBER_OF_FRAMES NUMBER_OF_BYTES

Video
ID                                       : 1
Format                                   : AVC
Format/Info                              : Advanced Video Codec
Format profile                           : [email protected]
Format settings, CABAC                   : Yes
Format settings, ReFrames                : 5 frames
Codec ID                                 : V_MPEG4/ISO/AVC
Duration                                 : 2h 12mn
Bit rate                                 : 10.5 Mbps
Width                                    : 1 920 pixels
Height                                   : 802 pixels
Display aspect ratio                     : 2.40:1
Frame rate mode                          : Constant
Frame rate                               : 23.976 fps
Color space                              : YUV
Chroma subsampling                       : 4:2:0
Bit depth                                : 8 bits
Scan type                                : Progressive
Bits/(Pixel*Frame)                       : 0.285
Stream size                              : 9.50 GiB (84%)
Title                                    : Крихітка на мільйон доларів / Million Dollar Baby / Малышка на миллион (2004) 1080p [K.A.F.]
Writing library                          : core 135 r2345 f0c1c53
Encoding settings                        : cabac=1 / ref=5 / deblock=1:-2:-2 / analyse=0x3:0x133 / me=tesa / subme=11 / psy=1 / psy_rd=1.00:0.00 / mixed_ref=1 / me_range=32 / chroma_me=1 / trellis=2 / 8x8dct=1 / cqm=0 / deadzone=21,11 / fast_pskip=0 / chroma_qp_offset=-2 / threads=12 / lookahead_threads=1 / sliced_threads=0 / nr=0 / decimate=0 / interlaced=0 / bluray_compat=0 / constrained_intra=0 / bframes=5 / b_pyramid=2 / b_adapt=2 / b_bias=0 / direct=3 / weightb=1 / open_gop=0 / weightp=2 / keyint=240 / keyint_min=23 / scenecut=40 / intra_refresh=0 / rc_lookahead=60 / rc=2pass / mbtree=1 / bitrate=10504 / ratetol=1.0 / qcomp=0.60 / qpmin=0 / qpmax=69 / qpstep=4 / cplxblur=20.0 / qblur=0.5 / ip_ratio=1.40 / aq=1:1.00
Language                                 : English
Default                                  : Yes
Forced                                   : No

Audio #1
ID                                       : 2
Format                                   : AC-3
Format/Info                              : Audio Coding 3
Mode extension                           : CM (complete main)
Format settings, Endianness              : Big
Codec ID                                 : A_AC3
Duration                                 : 2h 12mn
Bit rate mode                            : Constant
Bit rate                                 : 192 Kbps
Channel(s)                               : 2 channels
Channel positions                        : Front: L R
Sampling rate                            : 48.0 KHz
Bit depth                                : 16 bits
Compression mode                         : Lossy
Delay relative to video                  : 7ms
Stream size                              : 182 MiB (2%)
Title                                    : MVO [K1] 2.0 192 kbps [Hurtom-karvai0][+7ms]
Language                                 : Ukrainian
Default                                  : Yes
Forced                                   : No

Audio #2
ID                                       : 3
Format                                   :
Format/Info                              : Digital Theater Systems
Mode                                     : 16
Format settings, Endianness              : Big
Codec ID                                 : A_DTS
Duration                                 : 2h 12mn
Bit rate mode                            : Constant
Bit rate                                 : 1 509 Kbps
Channel(s)                               : 6 channels
Channel positions                        : Front: L C R, Side: L R, LFE
Sampling rate                            : 48.0 KHz
Bit depth                                : 16 bits
Compression mode                         : Lossy
Delay relative to video                  : 315ms
Stream size                              : 1.40 GiB (12%)
Title                                    : Original 5.1 1536 kbps
Language                                 : English
Default                                  : No
Forced                                   : No

Text
ID                                       : 4
Format                                   : UTF-8
Codec ID                                 : S_TEXT/UTF8
Codec ID/Info                            : UTF-8 Plain Text
Language                                 : English
Default                                  : No
Forced                                   : No

Menu
00:00:00.000                             : :00:00:00.000
00:06:38.398                             : :00:06:38.398
00:14:11.434                             : :00:14:11.434
00:17:39.058                             : :00:17:39.058
00:23:02.548                             : :00:23:02.548
00:28:04.141                             : :00:28:04.141
00:31:49.991                             : :00:31:49.991
00:35:03.893                             : :00:35:03.893
00:42:16.617                             : :00:42:16.617
00:48:40.209                             : :00:48:40.209
00:55:55.477                             : :00:55:55.477
00:59:14.468                             : :00:59:14.468
01:06:18.725                             : :01:06:18.725
01:10:59.213                             : :01:10:59.213
01:12:41.315                             : :01:12:41.315
01:19:02.279                             : :01:19:02.279
01:21:17.915                             : :01:21:17.915
01:24:51.086                             : :01:24:51.086
01:33:03.787                             : :01:33:03.787
01:39:32.425                             : :01:39:32.425
01:43:23.906                             : :01:43:23.906
01:48:13.696                             : :01:48:13.696
01:54:03.754                             : :01:54:03.754
01:58:35.984                             : :01:58:35.984
02:05:48.082                             : :02:05:48.082
02:08:07.847                             : :02:08:07.847




Джерела та подяки:
ріп відео, оригінальні звук та субтитри - K.A.F. (рутор); українська доріжка - karvai0 - зведення, Vasua95, xslim, ratbol - запис з ТБ; українізований постер - olgaya (всі - Гуртом).


ЗАЛИШАЙТЕСЬ ЯКОМОГА ДОВШЕ НА РОЗДАЧІ!

СКАЧАВ САМ - ДАЙ СКАЧАТИ ІНШИМ


Срібний реліз (на рейтинг впливає 50% завантаженого)
 Трекер:    Зареєстрований   

Завантажити / скачати фільм українською



відео для новачків



 Зареєстрований:   2014-10-10 22:15
 Розмір:   11.3 GB 
 Оцінка фільму:   5.4/10 (Голосів: 20)
   
Ua.bos_01 
VIP


З нами з: 22.06.15
Востаннє: 06.12.16
Повідомлень: 1291

2015-08-15 12:22  
Коли переглядав цей фільм з дружиною, вона в кінці ридала, ледь заспокоїв. Хороше, життєве, сильне кіно. Раджу до перегляду.
Ваш часовий пояс: GMT + 2 Години

Нова тема   Відповісти