Завантажити та скачати торренти українською


Контроль над гнівом / Anger Management (2003) 720p Ukr/Eng | Sub Eng

Нові коментарі

Нова тема   Відповісти
Останній раз роздавалося DaemonRus (2016-12-11)
Автор Повідомлення
braveboy 
Відео Гуртом - команда HD
Відео Гуртом - команда HD


З нами з: 15.06.10
Востаннє: 29.10.16
Повідомлень: 958

2014-10-10 20:24  

Контроль над гнівом / Anger Management (2003) 720p Ukr/Eng | Sub Eng


Контроль над гнівом / Anger Management (2003) 720p Ukr/Eng | Sub Eng


Жанр: комедія
Країна: США


Кінокомпанія: Revolution Studios, Happy Madison Productions, Anger Management LLC
Режисер: Пітер Сіґал
Актори: Адам Сандлер, Джек Ніколсон, Маріса Томей, Луіс Гузман, Аллен Коверт, Лінн Тігпен, Курт Фаллер, Джонатан Лоугрен

Сюжет:
Існує два типи агресивних людей - розповідає своєму пацієнтові доктор Райдел. - Перші, ти їх бачиш, коли йдеш в магазин і біля каси спостерігаєш за людиною, яка кричить на касира за те, що той не приймає його купон. Ці люди агресивні, але вони агресивні зовні.
Другий тип - це інтровертні агресори. Це касир, який мовчки і з удаваною ввічливістю вислухає всі погрози в свою адресу, перетерпить, а через деякий час запалає гнівом, повернеться в магазин з автоматом і розстріляє весь персонал і покупців.
У вас все гаразд з нервами? Дейв Базник теж думав, що він - абсолютно нормальна людина. Велике діло, разок наговорив грубощів стюардесі - буває, не стримався. І щоб за таку дрібницю людину направляли на курси «контролю над гнівом»?!



Тривалість: 01:45:02
Якість: 720p
Відео:
кодек:
розмір кадру: 1280 х 534
бітрейт: 8242 кб/с

Аудіо # 1:
мова: українська
переклад: багатоголосий закадровий
кодек: 5.1
бітрейт: 448 кб/с

Аудіо # 2:
мова: англійська
переклад: оригінал
кодек: 5.1
бітрейт: 1509 кб/с

Джерело озвучення:


Субтитри:
мова: англійська
тип: програмні (м'які)
формат: *.srt
MediaInfo
Video
ID : 1
Format : AVC
Format/Info : Advanced Video Codec
Format profile : [email protected]
Format settings, CABAC : Yes
Format settings, ReFrames : 12 frames
Codec ID : V_MPEG4/ISO/AVC
Duration : 1h 45mn
Bit rate : 8 242 Kbps
Width : 1 280 pixels
Height : 534 pixels
Display aspect ratio : 2.40:1
Frame rate mode : Constant
Frame rate : 23.976 fps
Color space : YUV
Chroma subsampling : 4:2:0
Bit depth : 8 bits
Scan type : Progressive
Bits/(Pixel*Frame) : 0.503
Stream size : 6.05 GiB (79%)
Writing library : core 138 r2358kMod 9e941d1
Encoding settings : cabac=1 / ref=12 / deblock=1:-3:-3 / analyse=0x3:0x113 / me=umh / subme=10 / psy=1 / fade_compensate=0.00 / psy_rd=1.05:0.00 / mixed_ref=1 / me_range=16 / chroma_me=1 / trellis=2 / 8x8dct=1 / cqm=0 / deadzone=21,11 / fast_pskip=0 / chroma_qp_offset=-2 / threads=6 / lookahead_threads=1 / sliced_threads=0 / nr=0 / decimate=0 / interlaced=0 / bluray_compat=0 / constrained_intra=0 / bframes=8 / b_pyramid=2 / b_adapt=2 / b_bias=0 / direct=3 / weightb=1 / open_gop=0 / weightp=2 / keyint=250 / keyint_min=23 / scenecut=40 / intra_refresh=0 / rc_lookahead=60 / rc=crf / mbtree=0 / crf=18.0000 / qcomp=0.80 / qpmin=0 / qpmax=30 / qpstep=4 / vbv_maxrate=20000 / vbv_bufsize=15000 / crf_max=0.0 / nal_hrd=none / ip_ratio=1.30 / pb_ratio=1.20 / aq=1:0.80
Language : English
Default : No
Forced : No
DURATION : 01:45:02.296000000
NUMBER_OF_FRAMES : 151104
NUMBER_OF_BYTES : 6653714297
_STATISTICS_WRITING_APP : mkvmerge v7.1.0 ('Good Love') 64bit built on Jul 27 2014 13:06:55
_STATISTICS_WRITING_DATE_UTC : 2014-10-10 18:14:29
_STATISTICS_TAGS : BPS DURATION NUMBER_OF_FRAMES NUMBER_OF_BYTES

Audio #1
ID : 2
Format : AC-3
Format/Info : Audio Coding 3
Mode extension : CM (complete main)
Format settings, Endianness : Big
Codec ID : A_AC3
Duration : 1h 45mn
Bit rate mode : Constant
Bit rate : 448 Kbps
Channel(s) : 6 channels
Channel positions : Front: L C R, Side: L R, LFE
Sampling rate : 48.0 KHz
Bit depth : 16 bits
Compression mode : Lossy
Stream size : 337 MiB (4%)
Title : 5.1 @ 448 kbps [INTER]
Language : Ukrainian
Default : Yes
Forced : No

Audio #2
ID : 3
Format :
Format/Info : Digital Theater Systems
Mode : 16
Format settings, Endianness : Big
Codec ID : A_DTS
Duration : 1h 45mn
Bit rate mode : Constant
Bit rate : 1 510 Kbps
Channel(s) : 6 channels
Channel positions : Front: L C R, Side: L R, LFE
Sampling rate : 48.0 KHz
Bit depth : 16 bits
Compression mode : Lossy
Stream size : 1.11 GiB (15%)
Title : 5.1 @ 1509 kbps
Language : English
Default : No
Forced : No

Text #1
ID : 4
Format : UTF-8
Codec ID : S_TEXT/UTF8
Codec ID/Info : UTF-8 Plain Text
Title : Full
Language : English
Default : No
Forced : No

Text #2
ID : 5
Format : UTF-8
Codec ID : S_TEXT/UTF8
Codec ID/Info : UTF-8 Plain Text
Title : SDH
Language : English
Default : No
Forced : No

Menu
00:00:00.000 : en:Chapter 1
00:05:04.054 : en:Chapter 2
00:09:59.516 : en:Chapter 3
00:16:54.722 : en:Chapter 4
00:22:25.719 : en:Chapter 5
00:29:28.976 : en:Chapter 6
00:36:20.595 : en:Chapter 7
00:42:22.039 : en:Chapter 8
00:47:57.833 : en:Chapter 9
00:52:36.445 : en:Chapter 10
00:58:05.440 : en:Chapter 11
01:04:42.587 : en:Chapter 12
01:16:01.056 : en:Chapter 13
01:20:44.798 : en:Chapter 14
01:27:36.376 : en:Chapter 15
01:35:07.076 : en:Chapter 16
Скріншоти




Джерело:


 Трекер:    Зареєстрований   

Завантажити / скачати фільм українською



відео для новачків



 Зареєстрований:   2014-10-10 20:30
 Розмір:   7.64 GB 
 Оцінка фільму:   9.3/10 (Голосів: 7)
   
Інші релізи
Rizotto 
Новенький


З нами з: 24.01.12
Востаннє: 28.11.16
Повідомлень: 5

2015-03-26 21:00  
Дайте хто небудь скачати. ААуууу!!!!!
braveboy 
Відео Гуртом - команда HD
Відео Гуртом - команда HD


З нами з: 15.06.10
Востаннє: 29.10.16
Повідомлень: 958

2015-03-28 02:33  
Rizotto написано:
Дайте хто небудь скачати. ААуууу!!!!!

роздавати буду до понеділка

Rizotto 
Новенький


З нами з: 24.01.12
Востаннє: 28.11.16
Повідомлень: 5

2015-03-28 09:36  
Дуже дякую.Вже чотири відсотка скачалось. )))
jonnyzero 
Свій


З нами з: 04.01.09
Востаннє: 05.12.16
Повідомлень: 55

2015-11-01 21:17  
Дайте швидкосi. дякую !
pahan35 
Новенький


З нами з: 08.09.11
Востаннє: 10.12.16
Повідомлень: 9

2016-03-10 23:04  
Через 7 днів видалю фільм з диску. Якщо кому потрібно, завантажуйте поки я роздаю.
Ваш часовий пояс: GMT + 2 Години

Нова тема   Відповісти