Завантажити та скачати торренти українською


Посейдон / Poseidon (2006) 720p 2xUkr/Eng | Sub Eng

Нові коментарі

Нова тема   Відповісти
Автор Повідомлення
Anonymous 







2014-10-10 15:56  
Посейдон / Poseidon (2006) 720p 2xUkr/Eng | Sub Eng



Оригінальний постер



Жанр: бойовик, трилер, драма, катастрофа, пригодницький
Країна: США



Кінокомпанія: Warner Bros., Virtual Studios, Radiant Productions, Next Entertainment, Irwin Allen Productions, Synthesis Entertainment
Режисер: Вольфганг Петерсен / Wolfgang Petersen
Актори: Джош Лукас / Josh Lucas, Курт Расел / Kurt Russell, Джесінда Баррет / Jacinda Barrett, Річард Дрейфус / Richard Dreyfuss, Еммі Россум / Emmy Rossum, Джиммі Беннетт / Jimmy Bennett та інші

Сюжет:
Напередодні новорічних свят в Атлантичному океані зазнає лиха шикарний круїзний лайнер «Посейдон», який перевернула гігантська приливна хвиля. У той час, як сотні пасажирів, що вижили, виконуючи вказівки капітана, залишаються в банкетному залі і чекають допомоги з берега, професійний картяр Ділан Джонс шукає свій шлях до порятунку.

Компанію Ділану всупереч його бажанню складають дев'ятирічний Конор зі своєю матір'ю Меггі, Роберт Ремсі, який намагається відшукати свою дочку на ім'я Дженніфер, а також її наречений Крістіан. До них приєднуються сором'язлива безбілетниця, літній гей, що мав намір накласти на себе руки, і молодий офіціант. Всі вони докладають неймовірних зусиль, щоб вибратися з потопаючого корабля на поверхню ...


Рейтинг MPAA: PG-13 - дітям до 13 років перегляд не бажаний
Вікова категорія: 12+

Тривалість: 01:38:14
Якість: 720p
Відео:
кодек:
розмір кадру: 1280x530
бітрейт: 6282 кбіт/с

Аудіо # 1:
мова: українська - Так Треба Продакшн на замовлення Інтер
переклад: багатоголосий закадровий
кодек: 5.1
бітрейт: 384 кбіт/с

Аудіо # 2:
мова: українська
переклад: багатоголосий закадровий
ролі озвучили: Курт Расел — Андрій Самінін, Джош Лукас/Діллан — Дмитро Завадський, Річард Дрейфус — Володимир Терещук, Майк Воґель — Павло Скороходько, Джасінда Баррет — Наталя Ярошенко та інші
кодек: 5.1
бітрейт: 384 кбіт/с

Аудіо # 3:
мова: англійська
переклад: оригінал
кодек: 5.1
бітрейт: 1510 кбіт/с

Субтитри:
мова: англійська
тип: програмні (м'які)
формат: *.srt

Збережено оригінальні розділи, як на Blu-ray.
MediaInfo
Код:
General
Unique ID                                : 176844724986103155199363481679889839755 (0x850B0E1D60A886C7BD3E4DC4BCCE368B)
Complete name                            : Poseidon (2006) [2xUkr,Eng sub.Eng] 720p [Hurtom].mkv
Format                                   : Matroska
Format version                           : Version 4 / Version 2
File size                                : 5.99 GiB
Duration                                 : 1h 38mn
Overall bit rate                         : 8 734 Kbps
Movie name                               : Посейдон / Poseidon (2006) 720p [Hurtom]
Encoded date                             : UTC 2014-10-10 09:57:21
Writing application                      : mkvmerge v7.2.0 ('On Every Street') 64bit built on Sep 13 2014 15:52:10
Writing library                          : libebml v1.3.0 + libmatroska v1.4.1
DURATION                                 : 01:24:57.075000000
NUMBER_OF_FRAMES                         : 831
NUMBER_OF_BYTES                          : 27019
_STATISTICS_WRITING_APP                  : mkvmerge v7.2.0 ('On Every Street') 64bit built on Sep 13 2014 15:52:10
_STATISTICS_WRITING_DATE_UTC             : 2014-10-10 09:57:21
_STATISTICS_TAGS                         : BPS DURATION NUMBER_OF_FRAMES NUMBER_OF_BYTES

Video
ID                                       : 1
Format                                   : AVC
Format/Info                              : Advanced Video Codec
Format profile                           : [email protected]
Format settings, CABAC                   : Yes
Format settings, ReFrames                : 6 frames
Codec ID                                 : V_MPEG4/ISO/AVC
Duration                                 : 1h 38mn
Bit rate                                 : 6 282 Kbps
Width                                    : 1 280 pixels
Height                                   : 530 pixels
Display aspect ratio                     : 2.40:1
Frame rate mode                          : Constant
Frame rate                               : 23.976 fps
Color space                              : YUV
Chroma subsampling                       : 4:2:0
Bit depth                                : 8 bits
Scan type                                : Progressive
Bits/(Pixel*Frame)                       : 0.386
Stream size                              : 4.31 GiB (72%)
Title                                    : Посейдон / Poseidon (2006) 720p [DON]
Language                                 : English
Default                                  : Yes
Forced                                   : No
DURATION                                 : 01:38:14.718000000
NUMBER_OF_FRAMES                         : 141332
NUMBER_OF_BYTES                          : 4754773623
_STATISTICS_WRITING_APP                  : mkvmerge v7.2.0 ('On Every Street') 64bit built on Sep 13 2014 15:52:10
_STATISTICS_WRITING_DATE_UTC             : 2014-10-10 09:57:21
_STATISTICS_TAGS                         : BPS DURATION NUMBER_OF_FRAMES NUMBER_OF_BYTES

Audio #1
ID                                       : 2
Format                                   : AC-3
Format/Info                              : Audio Coding 3
Mode extension                           : CM (complete main)
Format settings, Endianness              : Big
Codec ID                                 : A_AC3
Duration                                 : 1h 38mn
Bit rate mode                            : Constant
Bit rate                                 : 384 Kbps
Channel(s)                               : 6 channels
Channel positions                        : Front: L C R, Side: L R, LFE
Sampling rate                            : 48.0 KHz
Bit depth                                : 16 bits
Compression mode                         : Lossy
Stream size                              : 270 MiB (4%)
Title                                    : MVO [Inter] 5.1 384 kbps [Hurtom-aalleexx85]
Language                                 : Ukrainian
Default                                  : Yes
Forced                                   : No

Audio #2
ID                                       : 3
Format                                   : AC-3
Format/Info                              : Audio Coding 3
Mode extension                           : CM (complete main)
Format settings, Endianness              : Big
Codec ID                                 : A_AC3
Duration                                 : 1h 38mn
Bit rate mode                            : Constant
Bit rate                                 : 384 Kbps
Channel(s)                               : 6 channels
Channel positions                        : Front: L C R, Side: L R, LFE
Sampling rate                            : 48.0 KHz
Bit depth                                : 16 bits
Compression mode                         : Lossy
Stream size                              : 270 MiB (4%)
Title                                    : MVO [Novyj] 5.1 384 kbps [Hurtom-JACKUS]
Language                                 : Ukrainian
Default                                  : No
Forced                                   : No

Audio #3
ID                                       : 4
Format                                   :
Format/Info                              : Digital Theater Systems
Mode                                     : 16
Format settings, Endianness              : Big
Codec ID                                 : A_DTS
Duration                                 : 1h 38mn
Bit rate mode                            : Constant
Bit rate                                 : 1 510 Kbps
Channel(s)                               : 6 channels
Channel positions                        : Front: L C R, Side: L R, LFE
Sampling rate                            : 48.0 KHz
Bit depth                                : 24 bits
Compression mode                         : Lossy
Stream size                              : 1.04 GiB (17%)
Title                                    : Original 5.1 1510 kbps
Language                                 : English
Default                                  : No
Forced                                   : No

Text
ID                                       : 5
Format                                   : UTF-8
Codec ID                                 : S_TEXT/UTF8
Codec ID/Info                            : UTF-8 Plain Text
Language                                 : English
Default                                  : No
Forced                                   : No

Menu
00:00:00.000                             : en:Credits
00:03:35.340                             : en:Shipboard Encounters
00:07:20.857                             : en:New Year's Eve
00:12:16.777                             : en:Something's Off
00:15:22.463                             : en:Capsized
00:19:56.570                             : en:Ballroom Survivor's
00:24:27.465                             : en:A Plan and a Map
00:28:09.771                             : en:Elevator Shaft
00:34:07.420                             : en:Freeing Christian
00:38:14.000                             : en:Unlucky Larry
00:43:04.748                             : en:Fire Hose Gambit
00:46:24.489                             : en:Ballroom Breach
00:48:18.812                             : en:Air Shaft Climb
00:55:12.309                             : en:Ballast Tank
00:59:44.831                             : en:Out of Breath
01:04:44.046                             : en:Cut Off From the Bow
01:08:43.869                             : en:Separate Ways
01:12:24.673                             : en:Conor's Tight Spot
01:15:43.247                             : en:Sacrifice and Rescue
01:20:08.220                             : en:Propeller Suction
01:23:56.906                             : en:Survivors
01:29:09.343                             : en:End Credits




Джерела та подяки: &
ріп відео, оригінальні звук та субтитри - DON (HDbits); українські доріжки - aalleexx85 (1), JACKUS (2)- зведення, POMEO (1), greyknightnemo (2), MechanicCDRR (2) - запис з ТБ; українізований постер - Givi_мол. (всі - Гуртом).


ЗАЛИШАЙТЕСЬ ЯКОМОГА ДОВШЕ НА РОЗДАЧІ!

СКАЧАВ САМ - ДАЙ СКАЧАТИ ІНШИМ


 Трекер:    Зареєстрований   

Завантажити / скачати фільм українською



відео для новачків



 Зареєстрований:   2014-10-10 15:56
 Розмір:   5.99 GB 
 Оцінка фільму:   3.8/10 (Голосів: 16)
   
Інші релізи
   Посейдон / Poseidon (2006) AVC 2xUkr/Eng | sub Eng aalleexx85  3 / 0   2.61 GB   2013-08-12 15:42 
   Посейдон / Poseidon (2006) Ukr/Eng | sub Eng JACKUS  1 / 0   1.72 GB   2011-02-01 18:56 
Ваш часовий пояс: GMT + 2 Години

Нова тема   Відповісти