Завантажити та скачати торренти українською


Швидкість 2: Круїз під контролем (Швидкість 2: Небезпечний круїз) / Speed 2: Cruise Control (1997) 720p 2xUkr/Eng |Sub Eng

Нові коментарі

Нова тема   Відповісти
Автор Повідомлення
Anonymous 







2014-10-09 17:40  
Швидкість 2: Круїз під контролем (Швидкість 2: Небезпечний круїз) / Speed 2: Cruise Control (1997) 720p 2xUkr/Eng |Sub Eng



Альтернативні українізований та оригінальні постери







Жанр: бойовик, трилер, мелодрама, кримінальний
Країна: США



Кінокомпанія: Blue Tulip Productions, Twentieth Century Fox Film Corporation
Режисер: Ян Де Бонт / Jan de Bont
Актори: Сандра Баллок /Sandra Bullock, Джейсон Патрік / Jason Patric, Вільям Дефо / Willem Dafoe, Кіммі Робертсон / Kimmy Robertson, Коллін Кемп /Colleen Camp, Чарльз Паркс / Charles Parks, С'юзен Барнс / Susan Barnes, Темуера Моррісон /Temuera Morrison

Сюжет:
Енні попередила свого нового залицяльника, що на її долю вистачить пригод типу тієї, що їй довелося пережити у першому фільмі, і той збрехав, що працює пляжним полісменом, забороняючи молоді курити та смітити.

Дуже скоро правда відкривається, і Енні дізнається, що насправді хлопець працює у спецзагоні й виконує надзвичайно небезпечні завдання.
Щоб загладити провину, він запрошує Енні у розважальну поїздку по Карибському морю на розкішному круїзному лайнері...

Як на зло, на цьому ж лайнері опиняється трохи злий айтішник, з яким не до кінця розрахувалася фірма, що збудувала лайнер. Систему керування він знає як свої п'ять пальців і терпіти свавілля бариг не збирається...


Рейтинг MPAA: PG-13 - дітям до 13 років перегляд не бажаний
Вікова категорія: 12+

Тривалість: 02:05:10
Якість: 720p [CRiSC]
Відео:
кодек:
розмір кадру: 1280x532
бітрейт: 7809 кбіт/с [crf=16.8]

Аудіо # 1:
мова: українська
переклад: двоголосий закадровий
ролі озвучили: Андрій Твердак та Олена Яблучна
кодек: 5.1
бітрейт: 384 кбіт/с

Аудіо # 2:
мова: українська
переклад: багатоголосий закадровий
ролі озвучили: Олег Лепенець, Михайло Жонін та Лариса Руснак
кодек: 5.1
бітрейт: 384 кбіт/с

Аудіо # 3:
мова: англійська
переклад: оригінал
кодек: 5.1
бітрейт: 1509 кбіт/с

Субтитри:
мова: англійська
тип: програмні (м'які)
формат: *.srt

Збережено оригінальні розділи, як на Blu-ray.
MediaInfo
Код:
General
Unique ID                                : 254086162930058996070585347963166042252 (0xBF273707E3E697ED8480DE66BC5AA88C)
Complete name                            : Speed 2.Cruise Control (1997) [2xUkr,Eng sub.Eng] 720p [Hurtom & HDClub].mkv
Format                                   : Matroska
Format version                           : Version 4 / Version 2
File size                                : 9.00 GiB
Duration                                 : 2h 5mn
Overall bit rate                         : 10.3 Mbps
Movie name                               : Швидкість 2: Круїз під контролем / Speed 2: Cruise Control (1997) 720p [Hurtom & HDClub]
Encoded date                             : UTC 2014-10-09 14:47:54
Writing application                      : mkvmerge v7.2.0 ('On Every Street') 64bit built on Sep 13 2014 15:52:10
Writing library                          : libebml v1.3.0 + libmatroska v1.4.1
DURATION                                 : 01:59:59.233000000
NUMBER_OF_FRAMES                         : 1861
NUMBER_OF_BYTES                          : 48595
_STATISTICS_WRITING_APP                  : mkvmerge v7.2.0 ('On Every Street') 64bit built on Sep 13 2014 15:52:10
_STATISTICS_WRITING_DATE_UTC             : 2014-10-09 14:47:54
_STATISTICS_TAGS                         : BPS DURATION NUMBER_OF_FRAMES NUMBER_OF_BYTES

Video
ID                                       : 1
Format                                   : AVC
Format/Info                              : Advanced Video Codec
Format profile                           : [email protected]
Format settings, CABAC                   : Yes
Format settings, ReFrames                : 12 frames
Codec ID                                 : V_MPEG4/ISO/AVC
Duration                                 : 2h 5mn
Bit rate                                 : 7 809 Kbps
Width                                    : 1 280 pixels
Height                                   : 532 pixels
Display aspect ratio                     : 2.40:1
Frame rate mode                          : Constant
Frame rate                               : 23.976 fps
Color space                              : YUV
Chroma subsampling                       : 4:2:0
Bit depth                                : 8 bits
Scan type                                : Progressive
Bits/(Pixel*Frame)                       : 0.478
Stream size                              : 6.83 GiB (76%)
Title                                    : Швидкість 2: Круїз під контролем / Speed 2: Cruise Control / Скорость 2: Контроль над круизом (1997) 720p [CRiSC]
Writing library                          : core 142 r2431kMod ac76440
Encoding settings                        : cabac=1 / ref=12 / deblock=1:-3:-3 / analyse=0x3:0x133 / me=tesa / subme=11 / psy=1 / fade_compensate=0.00 / psy_rd=0.90:0.00 / mixed_ref=1 / me_range=24 / chroma_me=1 / trellis=2 / 8x8dct=1 / cqm=0 / deadzone=21,11 / fast_pskip=0 / chroma_qp_offset=-2 / threads=12 / lookahead_threads=2 / sliced_threads=0 / nr=0 / decimate=0 / interlaced=0 / bluray_compat=0 / constrained_intra=0 / fgo=0 / bframes=7 / b_pyramid=2 / b_adapt=2 / b_bias=0 / direct=3 / weightb=1 / open_gop=0 / weightp=2 / keyint=250 / keyint_min=23 / scenecut=40 / intra_refresh=0 / rc_lookahead=40 / rc=crf / mbtree=0 / crf=16.8000 / qcomp=0.75 / qpmin=0 / qpmax=69 / qpstep=4 / vbv_maxrate=50000 / vbv_bufsize=62500 / crf_max=0.0 / nal_hrd=none / filler=0 / ip_ratio=1.30 / pb_ratio=1.20 / aq=1:0.50
Language                                 : English
Default                                  : Yes
Forced                                   : No
Color primaries                          : BT.709
Transfer characteristics                 : BT.709
Matrix coefficients                      : BT.709
DURATION                                 : 02:05:10.253000000
NUMBER_OF_FRAMES                         : 180066
NUMBER_OF_BYTES                          : 7522242547
_STATISTICS_WRITING_APP                  : mkvmerge v7.2.0 ('On Every Street') 64bit built on Sep 13 2014 15:52:10
_STATISTICS_WRITING_DATE_UTC             : 2014-10-09 14:47:54
_STATISTICS_TAGS                         : BPS DURATION NUMBER_OF_FRAMES NUMBER_OF_BYTES

Audio #1
ID                                       : 2
Format                                   : AC-3
Format/Info                              : Audio Coding 3
Mode extension                           : CM (complete main)
Format settings, Endianness              : Big
Codec ID                                 : A_AC3
Duration                                 : 2h 5mn
Bit rate mode                            : Constant
Bit rate                                 : 384 Kbps
Channel(s)                               : 6 channels
Channel positions                        : Front: L C R, Side: L R, LFE
Sampling rate                            : 48.0 KHz
Bit depth                                : 16 bits
Compression mode                         : Lossy
Stream size                              : 344 MiB (4%)
Title                                    : DVO [1+1] 5.1 384 kbps [Hurtom-_oles]
Language                                 : Ukrainian
Default                                  : Yes
Forced                                   : No

Audio #2
ID                                       : 3
Format                                   : AC-3
Format/Info                              : Audio Coding 3
Mode extension                           : CM (complete main)
Format settings, Endianness              : Big
Codec ID                                 : A_AC3
Duration                                 : 2h 5mn
Bit rate mode                            : Constant
Bit rate                                 : 384 Kbps
Channel(s)                               : 6 channels
Channel positions                        : Front: L C R, Side: L R, LFE
Sampling rate                            : 48.0 KHz
Bit depth                                : 16 bits
Compression mode                         : Lossy
Stream size                              : 344 MiB (4%)
Title                                    : MVO [Novyj] 5.1 384 kbps [Hurtom-_oles]
Language                                 : Ukrainian
Default                                  : No
Forced                                   : No

Audio #3
ID                                       : 4
Format                                   :
Format/Info                              : Digital Theater Systems
Mode                                     : 16
Format settings, Endianness              : Big
Codec ID                                 : A_DTS
Duration                                 : 2h 5mn
Bit rate mode                            : Constant
Bit rate                                 : 1 509 Kbps
Channel(s)                               : 6 channels
Channel positions                        : Front: L C R, Side: L R, LFE
Sampling rate                            : 48.0 KHz
Bit depth                                : 24 bits
Compression mode                         : Lossy
Stream size                              : 1.32 GiB (15%)
Title                                    : Original 5.1 1509 kbps
Language                                 : English
Default                                  : No
Forced                                   : No

Text
ID                                       : 5
Format                                   : UTF-8
Codec ID                                 : S_TEXT/UTF8
Codec ID/Info                            : UTF-8 Plain Text
Language                                 : English
Default                                  : No
Forced                                   : No

Menu
00:00:00.000                             : en:00:00:00.000
00:00:57.975                             : en:00:00:57.975
00:01:50.193                             : en:00:01:50.193
00:06:46.740                             : en:00:06:46.740
00:09:10.550                             : en:00:09:10.550
00:14:39.003                             : en:00:14:39.003
00:16:03.212                             : en:00:16:03.212
00:20:29.145                             : en:00:20:29.145
00:25:15.639                             : en:00:25:15.639
00:28:27.748                             : en:00:28:27.748
00:32:22.399                             : en:00:32:22.399
00:37:16.151                             : en:00:37:16.151
00:40:35.516                             : en:00:40:35.516
00:44:36.132                             : en:00:44:36.132
00:52:38.614                             : en:00:52:38.614
00:55:12.726                             : en:00:55:12.726
00:58:46.148                             : en:00:58:46.148
01:05:23.920                             : en:01:05:23.920
01:08:47.832                             : en:01:08:47.832
01:12:48.531                             : en:01:12:48.531
01:15:51.380                             : en:01:15:51.380
01:18:48.724                             : en:01:18:48.724
01:21:49.822                             : en:01:21:49.822
01:24:46.498                             : en:01:24:46.498
01:29:00.043                             : en:01:29:00.043
01:31:54.050                             : en:01:31:54.050
01:35:10.079                             : en:01:35:10.079
01:43:51.892                             : en:01:43:51.892
01:47:56.887                             : en:01:47:56.887
01:53:00.565                             : en:01:53:00.565
01:55:45.647                             : en:01:55:45.647
01:57:01.806                             : en:01:57:01.806






Джерела та подяки: &
ріп відео, оригінальні звук та субтитри - CRiSC (HDbits), madoff (HDClub); українські доріжки - _oles - зведення, ua2004, Romario_O, Merdiff, dvorsky та xslim - запис з ТБ; українізовані постери - thefir та Воїн (всі - Гуртом).


ЗАЛИШАЙТЕСЬ ЯКОМОГА ДОВШЕ НА РОЗДАЧІ
ЗАВАНТАЖИВ САМ - ДАЙ ЗАВАНТАЖИТИ ІНШИМ!


Срібний реліз (на рейтинг впливає 50% завантаженого)
 Трекер:    Зареєстрований   

Завантажити / скачати фільм українською



відео для новачків



 Зареєстрований:   2014-10-09 17:40
 Розмір:   9 GB 
 Оцінка фільму:   3.1/10 (Голосів: 15)
   
boroznaya 
VIP


З нами з: 02.11.12
Востаннє: 07.12.16
Повідомлень: 1876

2015-12-21 18:09  
Не варто було продовження знімати, адже воно відстійне...
Ваш часовий пояс: GMT + 2 Години

Нова тема   Відповісти