Завантажити та скачати торренти українською


Люди Ікс. Дні минулого майбутнього / X-Men: Days of Future Past (2014) 720p-mini

Нові коментарі

Нова тема   Відповісти
Автор Повідомлення
Drool 
VIP


З нами з: 17.04.10
Востаннє: 08.12.16
Повідомлень: 1271

2014-10-08 23:22  
Люди Ікс. Дні минулого майбутнього / X-Men: Days of Future Past (2014) 720p-mini

Жанр: екшн, пригодницький, фантастика, трилер
Країна: США, Великобританія



Кінокомпанія: Twentieth Century Fox Film Corporation, Marvel Entertainment, TSG Entertainment
Режисер: Брайан Сінґер
Актори: Г'ю Джекмен (Hugh Jackman), Джеймс Макевой (James McAvoy), Майкл Фассбендер (Michael Fassbender), Дженніфер Лоуренс (Jennifer Lawrence), Геллі Беррі (Halle Berry), Єн Маккеллен (Ian McKellen), Патрік Стюарт (Patrick Stewart) та інші.

Сюжет:
Люди Ікс відправляють Росомаху в минуле, щоб змінити хід важливої історичної події, яка може глобально вплинути на співіснування людей і мутантів.


Тривалість: 02:11:35
Якість: 720p-mini
Відео:
кодек:
розмір кадру: 1280 х 534
бітрейт: 2603 кб/с

Аудіо:
мова: українська
переклад: професійний дубльований
кодек: 5.1
бітрейт: 448 кб/с

Джерело озвучення:


Субтитри:
мова: українська (форсовані)
тип: програмні (м'які)
формат: *.srt
MediaInfo
General
Unique ID : 194543754593688064058814168261083959957 (0x925BC3A5A974C8D0563483E071F69295)
Complete name : /mnt/disk_d/Video/X-Men.Days.of.Future.Past.2014.Ukr.Dub..720p-mini.UAGet.mkv
Format : Matroska
Format version : Version 2
File size : 2.81 GiB
Duration : 2h 11mn
Overall bit rate : 3 056 Kbps
Writing application : HandBrake rev0
Writing library : libmkv 0.6.5
TITLE : Люди Ікс. Дні минулого майбутнього (2014) 720p -=UAGet=-
ARTIST : Г'ю Джекмен, Джеймс Макевой, Майкл Фассбендер, Дженніфер Лоуренс, Геллі Беррі...
DIRECTOR : Брайан Сінґер
DATE_RELEASED : 2014
GENRE : екшн, пригодницький, фантастика, трилер
SYNOPSIS : Люди Ікс відправляють Росомаху в минуле, щоб змінити хід важливої історичної події, яка може глобально вплинути на співіснування людей і мутантів.

Video
ID : 1
Format : AVC
Format/Info : Advanced Video Codec
Format profile : [email protected]
Format settings, CABAC : Yes
Format settings, ReFrames : 11 frames
Codec ID : V_MPEG4/ISO/AVC
Duration : 2h 11mn
Bit rate : 2 603 Kbps
Width : 1 280 pixels
Height : 534 pixels
Display aspect ratio : 2.40:1
Frame rate mode : Constant
Frame rate : 23.976 fps
Color space : YUV
Chroma subsampling : 4:2:0
Bit depth : 8 bits
Scan type : Progressive
Bits/(Pixel*Frame) : 0.159
Stream size : 2.34 GiB (83%)
Writing library : core 142 r2389 956c8d8
Encoding settings : cabac=1 / ref=12 / deblock=1:-3:-3 / analyse=0x3:0x133 / me=umh / subme=11 / psy=1 / psy_rd=1,10:0,15 / mixed_ref=1 / me_range=64 / chroma_me=1 / trellis=2 / 8x8dct=1 / cqm=0 / deadzone=21,11 / fast_pskip=0 / chroma_qp_offset=-3 / threads=6 / lookahead_threads=1 / sliced_threads=0 / nr=0 / decimate=1 / interlaced=0 / bluray_compat=0 / constrained_intra=0 / bframes=12 / b_pyramid=1 / b_adapt=2 / b_bias=0 / direct=3 / weightb=1 / open_gop=0 / weightp=2 / keyint=240 / keyint_min=24 / scenecut=40 / intra_refresh=0 / rc=2pass / mbtree=0 / bitrate=2603 / ratetol=1,0 / qcomp=1,00 / qpmin=0 / qpmax=69 / qpstep=4 / cplxblur=20,0 / qblur=0,5 / ip_ratio=1,40 / pb_ratio=1,30 / aq=2:0,60
Language : English
Default : Yes
Forced : No
Color primaries : BT.709
Transfer characteristics : BT.709
Matrix coefficients : BT.709

Audio
ID : 2
Format : AC-3
Format/Info : Audio Coding 3
Mode extension : CM (complete main)
Format settings, Endianness : Big
Codec ID : A_AC3
Duration : 2h 11mn
Bit rate mode : Constant
Bit rate : 448 Kbps
Channel(s) : 6 channels
Channel positions : Front: L C R, Side: L R, LFE
Sampling rate : 48.0 KHz
Bit depth : 16 bits
Compression mode : Lossy
Stream size : 422 MiB (15%)
Language : Ukrainian
Default : Yes
Forced : No

Text
ID : 3
Format : UTF-8
Codec ID : S_TEXT/UTF8
Codec ID/Info : UTF-8 Plain Text
Language : Ukrainian
Default : Yes
Forced : No
Скріншоти




Джерело:
Особиста оцінка: 8 - мені сподобалося


 Трекер:    Зареєстрований   

Завантажити / скачати фільм українською



відео для новачків



 Зареєстрований:   2014-10-10 07:19
 Розмір:   2.81 GB 
 Оцінка фільму:   9.2/10 (Голосів: 43)
   
Інші релізи
Drool 
VIP


З нами з: 17.04.10
Востаннє: 08.12.16
Повідомлень: 1271

2014-10-08 23:24  
Орієнтовний розмір - 2,8 гектари.
winerys 
Відео Гуртом - підтримка та поширення
Відео Гуртом - підтримка та поширення


З нами з: 16.07.11
Востаннє: 08.12.16
Повідомлень: 64

2014-10-09 00:55  
Скажіть, чи обов"язково дивитися попередні частини, щоб зрозуміти те, що відбуватиметься тут?
Kowin 
Поважний учасник


З нами з: 28.07.08
Востаннє: 22.09.16
Повідомлень: 166

2014-10-09 01:06  
winerys
оригінальна трилогія та фільми про Росомаху не пов*язані з цим фільмом. бажано подивитися "Люди Х. перший клас", але впринципі і так можна дивитися

Харків"янин 
Свій


З нами з: 11.12.13
Востаннє: 17.09.16
Повідомлень: 142

2014-10-09 05:28  
Коли чекати на Гуртом?
Drool 
VIP


З нами з: 17.04.10
Востаннє: 08.12.16
Повідомлень: 1271

2014-10-09 07:05  
Харків"янин написано:
Коли чекати на Гуртом?

Якщо встигне докачатись до кінця робочого дня Remux і я на ніч поставлю кодуватись- то завтра з ранку. Якщо ж не встигне - то кодування я поставлю завтра з ранку, але тривалість понад 2 години і знову ж таки - до кінця робочого дня не встигне. В такому випадку - післязавтра вранці.

Харків"янин 
Свій


З нами з: 11.12.13
Востаннє: 17.09.16
Повідомлень: 142

2014-10-09 19:04  
Drool
Дякую, буду чекати.

bot 
робот


З нами з: 30.09.07
Востаннє: 26.05.05
Повідомлень: 16031

2014-10-10 07:19  
Тему перенесено з Анонси релізів до форуму Фільми в HD


Drool

kill_1 
Свій


З нами з: 11.07.10
Востаннє: 06.12.16
Повідомлень: 74

2014-10-10 11:00  
Дякую нарешті дочекався такого релізу.
gigska22 
Новенький


З нами з: 25.05.11
Востаннє: 04.12.16
Повідомлень: 18

2014-10-10 21:03  
треба буде в 60фпс викласти буде
Drool 
VIP


З нами з: 17.04.10
Востаннє: 08.12.16
Повідомлень: 1271

2014-10-10 21:58  
gigska22 написано:
треба буде в 60фпс викласти буде

Розбалували ми тут вас Wide grin

Dellariver 
Свій


З нами з: 14.01.12
Востаннє: 08.12.16
Повідомлень: 127

2015-04-10 14:25  
Дякую мені сподобався
Урдулак 
Новенький


З нами з: 20.12.13
Востаннє: 08.12.16
Повідомлень: 2

2015-05-25 00:08  
Крутий фільм, дякую
[Captain] 
VIP


З нами з: 18.02.12
Востаннє: 08.12.16
Повідомлень: 1396

2015-07-16 15:30  
На 52 хвилині: "Я знаю багато язиків".
Ну хто ж так перекладає Cry (2)

Drool 
VIP


З нами з: 17.04.10
Востаннє: 08.12.16
Повідомлень: 1271

2015-07-16 18:18  
Іноді доводиться викручуватись, щоб потрапити "в лице" Sad (1)
MrRyanCooper 
VIP


З нами з: 23.08.12
Востаннє: 08.12.16
Повідомлень: 282

2015-08-04 23:25  
Чи планується Extended на 2 год 29 хв ?
Nahalist 
Свій


З нами з: 12.12.13
Востаннє: 06.12.16
Повідомлень: 95

2015-08-05 15:52  
MrRyanCooper написано:
Чи планується Extended на 2 год 29 хв ?

о, я б теж не відмовився таку глянути.

Drool 
VIP


З нами з: 17.04.10
Востаннє: 08.12.16
Повідомлень: 1271

2015-08-06 07:39  
А десь є таке джерело (блюрей чи ремукс), та щоб з українською доріжкою та форсованими сабами?
Nahalist 
Свій


З нами з: 12.12.13
Востаннє: 06.12.16
Повідомлень: 95

2015-08-15 21:00  
Drool написано:
А десь є таке джерело (блюрей чи ремукс), та щоб з українською доріжкою та форсованими сабами?

Як вас розуміти? Вам потрібен Blu-Ray цього фільму? Ну в мене є 720 mkv Extended з англ. звуком ~640.00 kbps чи що ще треба? З українською? Звичайно з укр звуком Режисерок немає ніде ніякого фільму, хіба що з вставками, що я і просю - укр звук з вставками зробити, таке часто роблять.

Drool 
VIP


З нами з: 17.04.10
Востаннє: 08.12.16
Повідомлень: 1271

2015-08-16 23:57  
Я якось незрозуміло висловився? Ще раз - де взяти блюрей чи ремукс розширеної версії з українською доріжкою та форсованими сабами? Нащо мені готовий ріп без української доріжки?
Ваш часовий пояс: GMT + 2 Години

Нова тема   Відповісти