Завантажити та скачати торренти українською


Загадкова історія Бенджамина Баттона / The Curious Case of Benjamin Button (2008) 720p Ukr/Eng Sub|Ukr/Eng

Нові коментарі

Нова тема   Відповісти
Автор Повідомлення
SuperContik 
VIP


З нами з: 25.02.08
Востаннє: 13.09.16
Повідомлень: 332

2009-06-17 23:25  
Загадкова історія Бенджамина Баттона / The Curious Case of Benjamin Button (2008) 720p Ukr/Eng Sub|Ukr/Eng


«I was born under unusual circumstances.»



Жанр: фантастика, драма, містика
Країна: США

8.1 (94.129 голосів)

Режисер: Девід Фінчер
Актори: Бред Пітт, Кейт Бланшетт, Джулія Ормонд, Фаун А. Чемберс, Еліас Котеас, Донна Дю Плантьє, Джейкоб Вуд, Ерл Меддокс, Ед Метцгер, Джейсон Флемінг, Денні Вінсон, Девід Дженсен, Джоанна Сейлер, Махершалалхашбаз Алі, Фіона Хейл, Патрік О`Брайн, Денні Нельсон, Пітер Дональд Бадаламенті II, Паула Грей

Сюжет:
льм про чоловіка, який народився у віці 80-ти років, а потім. почав молодіти. Ця людина, як і кожен з нас, не могла зупинити час. Його шлях в ХХI століття, що бере свій початок в Новому Орлеані в 1918-му році в самому кінці Першої Світової війни, буде такий незвичайний, що навряд чи міг мати місце в житті кого-небудь іншого. Фільм оповідає про долю унікальної людини, про людей і події, що чекають його попереду, про любов, яку він знайде і втратить, про радощі життя і смутку втрат і про те, що залишається з нами поза часом.


Тривалість: 02:46:02
Якість:
Відео:
кодек:
розмір кадру: 1280x534
бітрейт: 5282 кб/с

Аудіо # 1:
мова: Українська
переклад: професійний дубльований Blu-ray СЕЕ
кодек: 5.1
бітрейт: 640 кб/с

Аудіо # 2:
мова: англійська
переклад: оригінал
кодек: 5.1
бітрейт: 1536 кб/с

Аудіо # 3:
мова: англійська
переклад: оригінал
кодек: OGG
бітрейт: 80 кб/с Коментарі

Субтитри:
мова: українська
тип: програмні м'які
формат: *.srt

Субтитри:
мова: англійська
тип: програмні м'які
формат: *.srt
MediaInfo
General
Unique ID : 223060397125195663115690646031752321621 (0xA7CFDEACB8E4F64689B3595C096D5A55)
Complete name : E:\The Curious Case of Benjamin Button (2008) [ukr,eng] BDRip720p [Hurtom].mkv
Format : Matroska
Format version : Version 2
File size : 8.70 GiB
Duration : 2h 46mn
Overall bit rate mode : Variable
Overall bit rate : 7 496 Kbps
Movie name : Curious Case of Benjamin Button (2008) - Release for Hurtom
Encoded date : UTC 2012-06-26 10:19:45
Writing application : mkvmerge v4.3.0 ('Escape from the Island') збірка від Sep 5 2010 10:30:51
Writing library : libebml v1.0.0 + libmatroska v1.0.0
Attachment : Yes / Yes / Yes

Video
ID : 1
Format : AVC
Format/Info : Advanced Video Codec
Format profile : [email protected]
Format settings, CABAC : Yes
Format settings, ReFrames : 12 frames
Muxing mode : Header stripping
Codec ID : V_MPEG4/ISO/AVC
Duration : 2h 46mn
Bit rate : 5 282 Kbps
Width : 1 280 pixels
Height : 534 pixels
Display aspect ratio : 2.40:1
Frame rate : 23.976 fps
Color space : YUV
Chroma subsampling : 4:2:0
Bit depth : 8 bits
Scan type : Progressive
Bits/(Pixel*Frame) : 0.322
Stream size : 5.94 GiB (68%)
Title : Release for Hurtom
Writing library : core 67 r1145M d2e1e1c
Encoding settings : cabac=1 / ref=12 / deblock=1:-3:-3 / analyse=0x1:0x111 / me=umh / subme=9 / psy_rd=0.9:0.0 / mixed_ref=1 / me_range=42 / chroma_me=1 / trellis=0 / 8x8dct=0 / cqm=0 / deadzone=12,6 / chroma_qp_offset=-2 / threads=6 / nr=0 / decimate=0 / mbaff=0 / bframes=6 / b_pyramid=1 / b_adapt=2 / b_bias=0 / direct=3 / wpredb=1 / keyint=250 / keyint_min=25 / scenecut=40 / rc=2pass / bitrate=5282 / ratetol=1.0 / qcomp=0.60 / qpmin=10 / qpmax=51 / qpstep=4 / cplxblur=20.0 / qblur=0.5 / ip_ratio=1.40 / pb_ratio=1.30 / aq=1:0.80
Language : English

Audio #1
ID : 2
Format : AC-3
Format/Info : Audio Coding 3
Mode extension : CM (complete main)
Muxing mode : Header stripping
Codec ID : A_AC3
Duration : 2h 46mn
Bit rate mode : Constant
Bit rate : 640 Kbps
Channel(s) : 6 channels
Channel positions : Front: L C R, Side: L R, LFE
Sampling rate : 48.0 KHz
Bit depth : 16 bits
Compression mode : Lossy
Delay relative to video : 3ms
Stream size : 760 MiB (9%)
Title : 5.1 @ 640 Дубляж
Language : Ukrainian

Audio #2
ID : 3
Format :
Format/Info : Digital Theater Systems
Muxing mode : Header stripping
Codec ID : A_DTS
Duration : 2h 46mn
Bit rate mode : Constant
Bit rate : 1 510 Kbps
Channel(s) : 6 channels
Channel positions : Front: L C R, Side: L R, LFE
Sampling rate : 48.0 KHz
Bit depth : 24 bits
Compression mode : Lossy
Stream size : 1.75 GiB (20%)
Title : 5.1 @ 1536
Language : English

Audio #3
ID : 4
Format : Vorbis
Format settings, Floor : 1
Codec ID : A_VORBIS
Duration : 2h 46mn
Bit rate mode : Variable
Bit rate : 80.0 Kbps
Channel(s) : 2 channels
Sampling rate : 48.0 KHz
Compression mode : Lossy
Stream size : 95.0 MiB (1%)
Title : Vorbis 2.0 @ 80 Commentary
Writing library : libVorbis 1.0 (UTC 2002-07-17)
Language : English
Writing application : Made with BeSweet v1.5b31
Encoded_Application/Url : http://DSPguru.doom9.org

Text #1
ID : 5
Format : UTF-8
Codec ID : S_TEXT/UTF8
Codec ID/Info : UTF-8 Plain Text
Title : надписи и пр.
Language : Ukrainian

Text #2
ID : 6
Format : ASS
Codec ID : S_TEXT/ASS
Codec ID/Info : Advanced Sub Station Alpha
Compression mode : Lossless
Language : English
Скріншоти




Особиста оцінка: 10 - без зайвих вагань рекомендую всім!

Джерело: &


 Трекер:    Зареєстрований   

Завантажити / скачати фільм українською



відео для новачків



 Зареєстрований:   2012-06-26 13:05
 Розмір:   8.7 GB 
 Оцінка фільму:   9.9/10 (Голосів: 48)
   
FukashiMoariTakaru 
Відео Гуртом - підтримка та поширення
Відео Гуртом - підтримка та поширення


З нами з: 05.01.09
Востаннє: 17.11.16
Повідомлень: 53

2009-09-04 13:06  
Якщо є можливість, будьте ласкаві на роздачі 1-2 дні побути. Дуже хочется подивитися даний фільм рідною мовою.
eastern_sun 
VIP


З нами з: 24.02.09
Востаннє: 22.10.16
Повідомлень: 701

2009-09-19 11:27  
мій варіант обкладинки

Leshchyshyn 
VIP


З нами з: 20.07.09
Востаннє: 02.12.16
Повідомлень: 470

2009-09-19 13:29  
огоооо який розмір!!! тре подумати що стирати))

П.С. 2 SuperContik , Ти б можливо подумав над зміною постера на той, що надав eastern_sun ! Людина старалась!!

Romczyk 
Почесний гуртомівець


З нами з: 18.03.08
Востаннє: 04.12.16
Повідомлень: 1101

2009-09-19 17:49  
Цитата:
П.С. 2 SuperContik , Ти б можливо подумав над зміною постера на той, що надав eastern_sun ! Людина старалась!!

Іноді краще жувати...

LonelyDay 
Новенький


З нами з: 23.03.10
Востаннє: 08.12.16
Повідомлень: 4

2011-01-16 19:11  
станьте на роздачу
leroykendall 
Модератор HD


З нами з: 03.01.11
Востаннє: 20.11.16
Повідомлень: 749

2012-06-25 09:57  
SuperContik
Тут російська доріжка іде першою.
Змініть в описі.
MediaInfo
Код:

General
Complete name                    : V:\The.Curious.Case.of.Benjamin.Button.2008.720p.BluRay.Rus.Ukr.Eng.HDclub.mkv
Format                           : Matroska
File size                        : 9.44 GiB
Duration                         : 2h 46mn
Overall bit rate                 : 8 142 Kbps
Movie name                       : Curious Case of Benjamin Button (2008) - Release for HDClub
Encoded date                     : UTC 2009-06-09 19:23:39
Writing application              : mkvmerge v2.9.0 ('Moanin'') built on May 22 2009 17:46:31
Writing library                  : libebml v0.7.7 + libmatroska v0.8.1
Cover                            : Yes / Yes / Yes

Video
ID                               : 1
Format                           : AVC
Format/Info                      : Advanced Video Codec
Format profile                   : [email protected]
Format settings, CABAC           : Yes
Format settings, ReFrames        : 12 frames
Muxing mode                      : Container [email protected]
Codec ID                         : V_MPEG4/ISO/AVC
Duration                         : 2h 45mn
Bit rate                         : 5 110 Kbps
Nominal bit rate                 : 5 282 Kbps
Width                            : 1 280 pixels
Height                           : 534 pixels
Display aspect ratio             : 2.35:1
Frame rate                       : 23.976 fps
Resolution                       : 24 bits
Colorimetry                      : 4:2:0
Scan type                        : Progressive
Bits/(Pixel*Frame)               : 0.312
Stream size                      : 5.92 GiB (63%)
Title                            : Release for HDClub
Writing library                  : core 67 r1145M d2e1e1c
Encoding settings                : cabac=1 / ref=12 / deblock=1:-3:-3 / analyse=0x1:0x111 / me=umh / subme=9 / psy_rd=0.9:0.0 / mixed_ref=1 / me_range=42 / chroma_me=1 / trellis=0 / 8x8dct=0 / cqm=0 / deadzone=12,6 / chroma_qp_offset=-2 / threads=6 / nr=0 / decimate=0 / mbaff=0 / bframes=6 / b_pyramid=1 / b_adapt=2 / b_bias=0 / direct=3 / wpredb=1 / keyint=250 / keyint_min=25 / scenecut=40 / rc=2pass / bitrate=5282 / ratetol=1.0 / qcomp=0.60 / qpmin=10 / qpmax=51 / qpstep=4 / cplxblur=20.0 / qblur=0.5 / ip_ratio=1.40 / pb_ratio=1.30 / aq=1:0.80
Language                         : English

Audio #1
ID                               : 2
Format                           : AC-3
Format/Info                      : Audio Coding 3
Codec ID                         : A_AC3
Duration                         : 2h 46mn
Bit rate mode                    : Constant
Bit rate                         : 640 Kbps
Channel(s)                       : 6 channels
Channel positions                : Front: L C R, Surround: L R, LFE
Sampling rate                    : 48.0 KHz
Video delay                      : 3ms
Stream size                      : 760 MiB (8%)
Title                            : 5.1 @ 640 Дубляж
Language                         : Russian

Audio #2
ID                               : 3
Format                           : AC-3
Format/Info                      : Audio Coding 3
Codec ID                         : A_AC3
Duration                         : 2h 46mn
Bit rate mode                    : Constant
Bit rate                         : 640 Kbps
Channel(s)                       : 6 channels
Channel positions                : Front: L C R, Surround: L R, LFE
Sampling rate                    : 48.0 KHz
Video delay                      : 3ms
Stream size                      : 760 MiB (8%)
Title                            : 5.1 @ 640 Дубляж
Language                         : Ukrainian

Audio #3
ID                               : 4
Format                           :
Format/Info                      : Digital Theater Systems
Codec ID                         : A_DTS
Duration                         : 2h 46mn
Bit rate mode                    : Constant
Bit rate                         : 1 510 Kbps
Channel(s)                       : 6 channels
Channel positions                : Front: L C R, Surround: L R, LFE
Sampling rate                    : 48.0 KHz
Resolution                       : 24 bits
Stream size                      : 1.75 GiB (19%)
Title                            : 5.1 @ 1536
Language                         : English

Audio #4
ID                               : 5
Format                           : Vorbis
Format settings, Floor           : 1
Codec ID                         : A_VORBIS
Duration                         : 2h 46mn
Bit rate mode                    : Constant
Bit rate                         : 80.0 Kbps
Channel(s)                       : 2 channels
Sampling rate                    : 48.0 KHz
Resolution                       : 16 bits
Stream size                      : 95.0 MiB (1%)
Title                            : Vorbis 2.0 @ 80 Commentary
Writing library                  : libVorbis 1.0 (UTC 2002-07-17)
Language                         : English

Text #1
ID                               : 6
Format                           : UTF-8
Codec ID                         : S_TEXT/UTF8
Codec ID/Info                    : UTF-8 Plain Text
Title                            : надписи и пр.
Language                         : Russian

Text #2
ID                               : 7
Format                           : UTF-8
Codec ID                         : S_TEXT/UTF8
Codec ID/Info                    : UTF-8 Plain Text
Title                            : надписи и пр.
Language                         : Ukrainian

Text #3
ID                               : 8
Format                           : UTF-8
Codec ID                         : S_TEXT/UTF8
Codec ID/Info                    : UTF-8 Plain Text
Language                         : Russian

Text #4
ID                               : 9
Format                           : ASS
Codec ID                         : S_TEXT/ASS
Codec ID/Info                    : Advanced Sub Station Alpha
Language                         : scr

Text #5
ID                               : 10
Format                           : ASS
Codec ID                         : S_TEXT/ASS
Codec ID/Info                    : Advanced Sub Station Alpha
Language                         : Czech

Text #6
ID                               : 11
Format                           : ASS
Codec ID                         : S_TEXT/ASS
Codec ID/Info                    : Advanced Sub Station Alpha
Language                         : Danish

Text #7
ID                               : 12
Format                           : ASS
Codec ID                         : S_TEXT/ASS
Codec ID/Info                    : Advanced Sub Station Alpha
Language                         : Dutch

Text #8
ID                               : 13
Format                           : ASS
Codec ID                         : S_TEXT/ASS
Codec ID/Info                    : Advanced Sub Station Alpha
Language                         : English

Text #9
ID                               : 14
Format                           : ASS
Codec ID                         : S_TEXT/ASS
Codec ID/Info                    : Advanced Sub Station Alpha
Language                         : Finnish

Text #10
ID                               : 15
Format                           : ASS
Codec ID                         : S_TEXT/ASS
Codec ID/Info                    : Advanced Sub Station Alpha
Language                         : French

Text #11
ID                               : 16
Format                           : ASS
Codec ID                         : S_TEXT/ASS
Codec ID/Info                    : Advanced Sub Station Alpha
Language                         : Portuguese

Text #12
ID                               : 17
Format                           : ASS
Codec ID                         : S_TEXT/ASS
Codec ID/Info                    : Advanced Sub Station Alpha
Language                         : Serbian

Text #13
ID                               : 18
Format                           : ASS
Codec ID                         : S_TEXT/ASS
Codec ID/Info                    : Advanced Sub Station Alpha
Language                         : Spanish

Text #14
ID                               : 19
Format                           : ASS
Codec ID                         : S_TEXT/ASS
Codec ID/Info                    : Advanced Sub Station Alpha
Language                         : Swedish

The_Marlboro 
Відео Гуртом - субтитрування
Відео Гуртом - субтитрування


З нами з: 23.05.10
Востаннє: 08.12.16
Повідомлень: 2854

2012-06-25 11:12  
leroykendall, взагаліто згідно правил це смітник.
leroykendall 
Модератор HD


З нами з: 03.01.11
Востаннє: 20.11.16
Повідомлень: 749

2012-06-25 16:49  
TheMarlboro
Згоден, але релізу більше 3-х років. І це єдиний ХД реліз цього фільму.
Може поки що залишити або в Архів доки не буде правильного релізу?

Віктор 
Відео Гуртом - субтитрування
Відео Гуртом - субтитрування


З нами з: 09.01.10
Востаннє: 08.12.16
Повідомлень: 8663

2012-06-25 17:05  
Взагалі-то в неоформлене. А релізеру усне попередження, бо наприклад Слоник неодноразово викладав навіть не зазначивши про іншу доріжку.
leroykendall 
Модератор HD


З нами з: 03.01.11
Востаннє: 20.11.16
Повідомлень: 749

2012-06-26 09:39  
Переніс в Неоформлене через порушення пункту 9 правил оформлення відео релізів:
http://toloka.to/t201
Цитата:
Українська доріжка повинна бути першою не тільки в описі, але і у самому відео. Крім українських доріжок допускається тільки доріжка і коментарі мовою оригіналу.

bot 
робот


З нами з: 30.09.07
Востаннє: 26.05.05
Повідомлень: 16031

2012-06-26 13:05  
Тему перенесено з Неоформлене відео до форуму Фільми в HD


Tarasyk

SuperContik 
VIP


З нами з: 25.02.08
Востаннє: 13.09.16
Повідомлень: 332

2012-06-26 13:09  
торент оновлено. Прибрано рус. доріжку та рус. субтитри. Бажаючі можуть перезавантажити
UA_Miroslav 
Модератор програм


З нами з: 11.12.10
Востаннє: 30.09.16
Повідомлень: 356

2012-06-26 15:27  
Капець.
Я гадав що писати повідомлення в таких темах придумали, щоб обговорювати сам фільм(програму,тощо), висловлювати свої враження! а виявилося, що тут тільки обговорюють помилки в оформленні релізу=).Такого я не зустрічав більше ні на жодному трекері, це аж бісить!
куди не заглянь, кругом:"зміни постер","виправ помилку","постав кому","неоформлено" жах!!!!!!Ніде немає такого бардаку!

leroykendall 
Модератор HD


З нами з: 03.01.11
Востаннє: 20.11.16
Повідомлень: 749

2012-06-26 15:30  
Оперативно Happy

SuperContik написано:
Аудіо # 4:

Виправьте на 3

SuperContik написано:
Muxing mode : Header stripping

Порушення пункту 2.3 правил http://toloka.to/t20052.
Нажаль треба перезібрати.

SuperContik написано:
тип: пререндерні

Тут субтитри "програмні м'які".

SuperContik 
VIP


З нами з: 25.02.08
Востаннє: 13.09.16
Повідомлень: 332

2012-06-26 15:57  
leroykendall
Так релізу вже 3 роки може най буде?
В правилах ше є таке Rolleyes (2)
Цитата:
Правила в пунктах 1-6 можуть не стосуються релізів, що викладені до 24.11.11

SHEVA1991 
Поважний учасник


З нами з: 29.11.12
Востаннє: 03.12.16
Повідомлень: 200

2012-12-24 17:52  
Мені фільм сподобався! Як і всі фільми Девіда Фінчера він глибокий,зі змістом і головне дуже чудовий і попри довгу тривалість дивишся на одному подиху..Дякую
lolykos 
Новенький


З нами з: 29.02.12
Востаннє: 16.11.16
Повідомлень: 3

2013-09-13 21:29  
Мабудь це кращий фільм,який я коли-небудь бачив.Ви ,впевнений, будете вражені від перегляду.
Gratix02 
Свій


З нами з: 08.01.12
Востаннє: 05.12.16
Повідомлень: 80

2014-04-20 12:56  
Гарний фільм. Дякую.
Прокурор 
VIP


З нами з: 24.06.13
Востаннє: 06.12.16
Повідомлень: 343

2014-06-08 01:13  
Загалом цікавий фільм, але видається, що дечого не вистачає цьому фільму...
jariklanat 
Новенький


З нами з: 08.08.12
Востаннє: 25.08.15
Повідомлень: 5

2014-06-12 08:52  
Довантажив до 90% і застряг... ні у кого нема 100%?
Wizard_Harry 
Свій


З нами з: 11.10.13
Востаннє: 07.12.16
Повідомлень: 111

2015-02-19 19:40  
Шедевральний деякими аспектами твір, пустив сльозу, ґречно дякую)
Ваш часовий пояс: GMT + 2 Години

Нова тема   Відповісти