Завантажити та скачати торренти українською


Останній легіон / The Last Legion (2007) 720p Ukr/Eng | Sub Eng

Нові коментарі

Нова тема   Відповісти
Автор Повідомлення
Anonymous 







2014-10-08 19:56  
Останній легіон / The Last Legion (2007) 720p Ukr/Eng | Sub Eng



Оригінальний постер



Жанр: фентезі, бойовик, пригодницький, військовий
Країна: Франція, Велика Британія, Італія, Туніс



Кінокомпанія: Dino De Laurentiis Company, Quinta Communications, Ingenious Film Partners, Nimar Studios, Zephyr Films
Режисер: Даг Лефтер / Doug Lefler
Актори: Колін Ферт / Colin Firth, Бен Кінґслі / Ben Kingsley, Айшварія Рай / Aishwarya Rai, Кевін МакКідд / Kevin McKidd, Пітер Муллан / Peter Mullan, Джон Ханна / John Hannah та інші

Сюжет:
476 рік нашої ери. Агонія Римської імперії… Династія Цезарів переможена… Останнього імператора, 12-річного Ромулуса Августуса, що керував країною всього лише один день, варвари ув'язнюють у вязниці на острові Капрі.

Проте з допомогою свого наставника та легіонера Августус здійснює втечу і відправляється в ризиковану подорож до берегів Британії, щоб очолити Дев'ятий легіон, єдиний що зберіг свою вірність Риму. Останній легіон… Августус повинен врятувати країну, повернути владу, відновити династію. До кого схильні небеса у вирішальній битві?


Рейтинг MPAA: PG-13 - дітям до 13 років перегляд не бажаний
Вікова категорія: 12+

Тривалість: 01:41:55
Якість: 720p [ріп від Positive]
Відео:
кодек:
розмір кадру: 1280х532
бітрейт: 6174 кбіт/с

Аудіо # 1: та
мова: українська
переклад: багатоголосий закадровий
ролі озвучили: Колін Ферт — Володимир Терещук, Олег Лепенець, Лідія Муращенко і Олена Узлюк
кодек: 2.0
бітрейт: 192 кбіт/с

Аудіо # 2:
мова: англійська
переклад: оригінал
кодек: 5.1
бітрейт: 1509 кбіт/с

Субтитри:
мова: англійська
тип: програмні (м'які)
формат: *.srt

Збережено оригінальні розділи, як на Blu-ray.
MediaInfo
Код:
General
Unique ID                                : 176389230732033860068061626617344709128 (0x84B354839FC91A3EBEC0C7F5F49A5208)
Complete name                            : The Last Legion (2007) [Ukr,Eng sub.Eng] 720p [Hurtom & HDClub].mkv
Format                                   : Matroska
Format version                           : Version 4 / Version 2
File size                                : 5.60 GiB
Duration                                 : 1h 41mn
Overall bit rate                         : 7 873 Kbps
Movie name                               : Останній легіон / The Last Legion (2007) 720p [Hurtom & HDClub]
Encoded date                             : UTC 2014-10-08 09:59:05
Writing application                      : mkvmerge v7.2.0 ('On Every Street') 64bit built on Sep 13 2014 15:52:10
Writing library                          : libebml v1.3.0 + libmatroska v1.4.1
DURATION                                 : 01:32:46.936000000
NUMBER_OF_FRAMES                         : 927
NUMBER_OF_BYTES                          : 29613
_STATISTICS_WRITING_APP                  : mkvmerge v7.2.0 ('On Every Street') 64bit built on Sep 13 2014 15:52:10
_STATISTICS_WRITING_DATE_UTC             : 2014-10-08 09:59:05
_STATISTICS_TAGS                         : BPS DURATION NUMBER_OF_FRAMES NUMBER_OF_BYTES

Video
ID                                       : 1
Format                                   : AVC
Format/Info                              : Advanced Video Codec
Format profile                           : [email protected]
Format settings, CABAC                   : Yes
Format settings, ReFrames                : 12 frames
Codec ID                                 : V_MPEG4/ISO/AVC
Duration                                 : 1h 41mn
Bit rate                                 : 6 174 Kbps
Width                                    : 1 280 pixels
Height                                   : 532 pixels
Display aspect ratio                     : 2.40:1
Frame rate mode                          : Constant
Frame rate                               : 23.976 fps
Color space                              : YUV
Chroma subsampling                       : 4:2:0
Bit depth                                : 8 bits
Scan type                                : Progressive
Bits/(Pixel*Frame)                       : 0.378
Stream size                              : 4.28 GiB (76%)
Title                                    : Останній легіон / The Last Legion / Последний легион (2007) 720p [Positive]
Writing library                          : core 120 r2164 da19765
Encoding settings                        : cabac=1 / ref=12 / deblock=1:-2:-2 / analyse=0x3:0x113 / me=umh / subme=10 / psy=1 / psy_rd=1.00:0.10 / mixed_ref=1 / me_range=48 / chroma_me=1 / trellis=2 / 8x8dct=1 / cqm=0 / deadzone=21,11 / fast_pskip=1 / chroma_qp_offset=-3 / threads=3 / sliced_threads=0 / nr=0 / decimate=1 / interlaced=0 / bluray_compat=0 / constrained_intra=0 / bframes=10 / b_pyramid=2 / b_adapt=2 / b_bias=0 / direct=3 / weightb=1 / open_gop=0 / weightp=2 / keyint=240 / keyint_min=23 / scenecut=40 / intra_refresh=0 / rc_lookahead=60 / rc=2pass / mbtree=1 / bitrate=6174 / ratetol=1.0 / qcomp=0.60 / qpmin=10 / qpmax=51 / qpstep=4 / cplxblur=20.0 / qblur=0.5 / vbv_maxrate=38000 / vbv_bufsize=30000 / nal_hrd=none / ip_ratio=1.40 / aq=1:1.00
Language                                 : English
Default                                  : Yes
Forced                                   : No
DURATION                                 : 01:41:55.109000000
NUMBER_OF_FRAMES                         : 146616
NUMBER_OF_BYTES                          : 4715924575
_STATISTICS_WRITING_APP                  : mkvmerge v7.2.0 ('On Every Street') 64bit built on Sep 13 2014 15:52:10
_STATISTICS_WRITING_DATE_UTC             : 2014-10-08 09:59:05
_STATISTICS_TAGS                         : BPS DURATION NUMBER_OF_FRAMES NUMBER_OF_BYTES

Audio #1
ID                                       : 2
Format                                   : AC-3
Format/Info                              : Audio Coding 3
Mode extension                           : CM (complete main)
Format settings, Endianness              : Big
Codec ID                                 : A_AC3
Duration                                 : 1h 41mn
Bit rate mode                            : Constant
Bit rate                                 : 192 Kbps
Channel(s)                               : 2 channels
Channel positions                        : Front: L R
Sampling rate                            : 48.0 KHz
Bit depth                                : 16 bits
Compression mode                         : Lossy
Stream size                              : 140 MiB (2%)
Title                                    : MVO [ICTV, NTN] 2.0 192 kbps [Hurtom-_oles]
Language                                 : Ukrainian
Default                                  : Yes
Forced                                   : No

Audio #2
ID                                       : 3
Format                                   :
Format/Info                              : Digital Theater Systems
Mode                                     : 16
Format settings, Endianness              : Big
Codec ID                                 : A_DTS
Duration                                 : 1h 41mn
Bit rate mode                            : Constant
Bit rate                                 : 1 509 Kbps
Channel(s)                               : 6 channels
Channel positions                        : Front: L C R, Side: L R, LFE
Sampling rate                            : 48.0 KHz
Bit depth                                : 24 bits
Compression mode                         : Lossy
Stream size                              : 1.07 GiB (19%)
Title                                    : Original 5.1 1509 kbps
Language                                 : English
Default                                  : No
Forced                                   : No

Text
ID                                       : 4
Format                                   : UTF-8
Codec ID                                 : S_TEXT/UTF8
Codec ID/Info                            : UTF-8 Plain Text
Language                                 : English
Default                                  : No
Forced                                   : No

Menu
00:00:00.000                             : en:Chapter 1
00:09:07.338                             : en:Chapter 2
00:18:07.378                             : en:Chapter 3
00:25:35.826                             : en:Chapter 4
00:34:07.629                             : en:Chapter 5
00:43:32.693                             : en:Chapter 6
00:51:09.400                             : en:Chapter 7
00:58:58.994                             : en:Chapter 8
01:07:46.646                             : en:Chapter 9
01:17:52.042                             : en:Chapter 10
01:24:08.502                             : en:Chapter 11
01:34:00.301                             : en:Chapter 12




Джерела та подяки: &
ріп відео, оригінальні звук та субтитри - Positive (Awesome-HD), madoff (HDClub); українська доріжка - _oles - зведення, drakon87 та akon111- запис з ТБ; українізований постер - Dj BenLaden (всі - Гуртом).


ЗАЛИШАЙТЕСЬ ЯКОМОГА ДОВШЕ НА РОЗДАЧІ!

СКАЧАВ САМ - ДАЙ СКАЧАТИ ІНШИМ


 Трекер:    Зареєстрований   

Завантажити / скачати фільм українською



відео для новачків



 Зареєстрований:   2014-10-08 19:56
 Розмір:   5.6 GB 
 Оцінка фільму:   4/10 (Голосів: 15)
   
Інші релізи
   Останній легіон / The Last Legion (2007) Ukr/Eng _oles  2 / 0   1.78 GB   2009-08-03 10:25 
Gespenst 
Поважний учасник


З нами з: 30.09.09
Востаннє: 07.12.16
Повідомлень: 211

2014-10-09 06:45  
Судячи з постеру і скріншотів фільм так собі. Чи ні?
Anonymous 







2014-10-09 07:08  
Перемотував фільм після мквтулнікса, мені здалося, що фільм нормальний, кілька епізодів навіть зупинився подивився. Рейтинг низький через цільову аудиторію - хлопчаків та підлітків, на яку розрахований цей фільм.
Grishazahid 
Свій


З нами з: 27.02.12
Востаннє: 06.12.16
Повідомлень: 59

2014-10-09 12:10  
Кому цікава тематика Римської імперії - ще можна переглянути Орел Дев'ятого легіону/The Eagle (2011)
Ваш часовий пояс: GMT + 2 Години

Нова тема   Відповісти