Завантажити та скачати торренти українською


Люди Ікс: Дні минулого майбутнього / X-Men: Days of Future Past (2014) 1080p 3D [Half OverUnder] Ukr/Eng | Sub Ukr/Eng

Нові коментарі

Нова тема   Відповісти
Автор Повідомлення
3d_reliz 
Частий відвідувач


З нами з: 28.09.14
Востаннє: 15.03.16
Повідомлень: 35

2014-10-08 11:34  
Люди Ікс: Дні минулого майбутнього / X-Men: Days of Future Past (2014) 1080p 3D [Half OverUnder] Ukr/Eng | Sub Ukr/Eng

Люди Ікс: Дні минулого майбутнього / X-Men: Days of Future Past (2014) 1080p 3D [Half OverUnder] Ukr/Eng | Sub Ukr/Eng


Жанр: бойовик, пригодницький, трилер, фантастика
Країна: США, Великобританія



Кінокомпанія: Twentieth Century Fox Film Corporation, Marvel Entertainment, TSG Entertainment
Режисер: Браян Сінгер (Bryan Singer)
Актори: Г'ю Джекмен (Hugh Jackman), Джеймс Макевой (James McAvoy), Майкл Фассбендер (Michael Fassbender), Дженніфер Лоуренс (Jennifer Lawrence), Геллі Беррі (Halle Berry), Єн Маккеллен (Ian McKellen), Патрік Стюарт (Patrick Stewart) та інші.

Сюжет:
У недалекому майбутньому роботи-мисливці Вартові, винищують усіх мутантів. Єдина надія на виживання - запобігти низці фатальних подій, що призвели до появи Вартових. За допомогою своїх здібностей, Кітті Прайд переміщує свідомість Росомахи у його молоде тіло в 1973 рік. В минулому виявляється не все так просто: молодий Професор Ікс остаточно розчарований у своїх ідеях, Магнето утримується у в'язниці глибоко під землею, а людство не знає як реагувати на появу мутантів...


Тривалість: 2:11:35
Якість:
Відео:
кодек:
розмір кадру: 1920 х 1080
бітрейт: 10 Мб/с

Аудіо # 1:
мова: українська
переклад: професійний дубльований
кодек: 5.1
бітрейт: 448 кб/с

Аудіо # 2:
мова: англійська
переклад: оригінал
кодек: 5.1
бітрейт: 1509 кб/с

Джерело озвучення:


Субтитри(Forced, Full):
мова: українська
тип: програмні (м'які)
формат: *.srt

Субтитри(Forced, Full, SDH):
мова: англійська
тип: програмні (м'які)
формат: *.srt
MediaInfo
General
Unique ID : 207793858413399008255957064461641581987 (0x9C53A433F5307EB9A619E3D607E805A3)
Complete name : E:\3D_film\X-Men Days of Future Past (2014) 1080p 3D [UKR_ENG] sub ukr_eng [Hurtom].mkv
Format : Matroska
Format version : Version 1
File size : 11.3 GiB
Duration : 2h 11mn
Overall bit rate : 12.2 Mbps
Movie name : X-Menc Days of Future Past (2014) 3D
Encoded date : UTC 2014-10-08 09:10:26
Writing application : mkvmerge v2.4.1 ('Use Me') built on Dec 5 2008 18:30:05
Writing library : libebml v0.7.7 + libmatroska v0.8.1
Cover : Yes
Video #1
ID : 1
Format : AVC
Format/Info : Advanced Video Codec
Format profile : [email protected]
Format settings, CABAC : Yes
Format settings, ReFrames : 4 frames
Codec ID : V_MPEG4/ISO/AVC
Duration : 2h 11mn
Bit rate : 10.0 Mbps
Width : 1 920 pixels
Height : 1 080 pixels
Display aspect ratio : 16:9
Frame rate mode : Constant
Frame rate : 23.976 fps
Color space : YUV
Chroma subsampling : 4:2:0
Bit depth : 8 bits
Scan type : Progressive
Bits/(Pixel*Frame) : 0.202
Stream size : 9.23 GiB (82%)
Title : Люди.Икс.Дни.минувшего.будущего-X.Men.Days.of.Future.Past.(2014)..[1080p].3D
Writing library : core 138 r2358 9e941d1
Encoding settings : cabac=1 / ref=4 / deblock=1:-3:-3 / analyse=0x3:0x113 / me=umh / subme=10 / psy=1 / psy_rd=1.00:0.15 / mixed_ref=1 / me_range=32 / chroma_me=1 / trellis=2 / 8x8dct=1 / cqm=0 / deadzone=21,11 / fast_pskip=1 / chroma_qp_offset=-3 / threads=12 / lookahead_threads=3 / sliced_threads=0 / nr=0 / decimate=1 / interlaced=0 / bluray_compat=0 / constrained_intra=0 / bframes=10 / b_pyramid=2 / b_adapt=2 / b_bias=0 / direct=3 / weightb=1 / open_gop=0 / weightp=2 / keyint=250 / keyint_min=23 / scenecut=40 / intra_refresh=0 / rc_lookahead=60 / rc=crf / mbtree=1 / crf=17.0 / qcomp=0.70 / qpmin=0 / qpmax=69 / qpstep=4 / vbv_maxrate=40000 / vbv_bufsize=30000 / crf_max=0.0 / nal_hrd=none / frame-packing=4 / ip_ratio=1.40 / aq=1:0.70
Language : English
Default : Yes
Forced : No
Audio #2
ID : 2
Format : AC-3
Format/Info : Audio Coding 3
Mode extension : CM (complete main)
Format settings, Endianness : Big
Codec ID : A_AC3
Duration : 2h 11mn
Bit rate mode : Constant
Bit rate : 448 Kbps
Channel(s) : 6 channels
Channel positions : Front: L C R, Side: L R, LFE
Sampling rate : 48.0 KHz
Bit depth : 16 bits
Compression mode : Lossy
Stream size : 422 MiB (4%)
Title : 5.1 / 448 kbps / Dub (Blu-ray CEE)
Language : Ukrainian
Default : Yes
Forced : No
Audio #3
ID : 3
Format :
Format/Info : Digital Theater Systems
Format profile : ES
Mode : 16
Format settings, Endianness : Big
Codec ID : A_DTS
Duration : 2h 11mn
Bit rate mode : Constant
Bit rate : 1 509 Kbps
Channel(s) : 6 channels
Channel positions : Front: L C R, Side: L R, LFE
Sampling rate : 48.0 KHz
Bit depth : 24 bits
Compression mode : Lossy
Delay relative to video : 11ms
Stream size : 1.39 GiB (12%)
Title : -ES 5.1 / 1536 Kbps / Original
Language : English
Default : No
Forced : No
Text #4
ID : 4
Format : UTF-8
Codec ID : S_TEXT/UTF8
Codec ID/Info : UTF-8 Plain Text
Title : Forced
Language : Ukrainian
Default : Yes
Forced : No
Text #5
ID : 5
Format : UTF-8
Codec ID : S_TEXT/UTF8
Codec ID/Info : UTF-8 Plain Text
Title : Full
Language : Ukrainian
Default : No
Forced : No
Text #6
ID : 6
Format : UTF-8
Codec ID : S_TEXT/UTF8
Codec ID/Info : UTF-8 Plain Text
Title : Forced
Language : English
Default : No
Forced : No
Text #7
ID : 7
Format : UTF-8
Codec ID : S_TEXT/UTF8
Codec ID/Info : UTF-8 Plain Text
Title : Full
Language : English
Default : No
Forced : No
Text #8
ID : 8
Format : UTF-8
Codec ID : S_TEXT/UTF8
Codec ID/Info : UTF-8 Plain Text
Title : SDH
Language : English
Default : No
Forced : No
Скріншоти




Джерело:
Особиста оцінка: 10 - без зайвих вагань рекомендую всім!
3D перевірено з флешки на внутрішньому плеєрі телевізора LG


P.S. Одноразові окуляри за 5 грн з кінотеатрів IMAX підходять до телевізорів LG (оригінальні вартують біля 100 грн)



 Трекер:    Зареєстрований   

Завантажити / скачати фільм українською



відео для новачків



 Зареєстрований:   2014-10-08 11:34
 Розмір:   11.26 GB 
 Оцінка фільму:   8/10 (Голосів: 10)
   
igor911 
Відео Гуртом
Відео Гуртом


З нами з: 18.01.08
Востаннє: 06.12.16
Повідомлень: 5148

2014-10-08 14:58  
Справте
3d_reliz написано:
мутанти близькі винищуються роботами-мисливцями на мутантів Вартовими

Що це за маячня? Перечитайте і виправте сюжет, будь ласка.
В MediaInfo зазначено 2 українських та 3 англ. сабів, розпишіть це в оформленні детальніше.

3d_reliz 
Частий відвідувач


З нами з: 28.09.14
Востаннє: 15.03.16
Повідомлень: 35

2014-10-08 15:09  
я навіть не перечитував, звідси зкопіював.. http://toloka.to/t59523, зараз все виправлю.
igor911 
Відео Гуртом
Відео Гуртом


З нами з: 18.01.08
Востаннє: 06.12.16
Повідомлень: 5148

2014-10-08 15:12  
там я недогледів...
3d_reliz 
Частий відвідувач


З нами з: 28.09.14
Востаннє: 15.03.16
Повідомлень: 35

2014-10-08 15:16  
тепер добре ? мож би створити окрему тему з "HD Українською в 3D" ?
igor911 
Відео Гуртом
Відео Гуртом


З нами з: 18.01.08
Востаннє: 06.12.16
Повідомлень: 5148

2014-10-08 15:28  
Слушна думка, бо пошук по "3D" видає більше не 3Д релізів, ніж 3Д. Напиши пропозицію Конфуціусу в темах http://toloka.to/t7599 та http://toloka.to/t9030
slavikn 
Новенький


З нами з: 25.07.11
Востаннє: 24.08.16
Повідомлень: 1

2015-01-03 02:24  
Українські переклади найкращі!!!! Дякую вам за те що ви Є !!!
valera.plevako 
Новенький


З нами з: 09.01.14
Востаннє: 20.11.16
Повідомлень: 10

2015-07-28 11:28  
Будете додавати розширену (режисерську) версію?
3d_reliz 
Частий відвідувач


З нами з: 28.09.14
Востаннє: 15.03.16
Повідомлень: 35

2015-08-03 14:00  
я, ні.
Ваш часовий пояс: GMT + 2 Години

Нова тема   Відповісти