Завантажити та скачати торренти українською


Монті Пайтон і Священний Грааль / Monty Python and the Holy Grail (1975) 720p Ukr/Eng | sub Eng

Нові коментарі

Нова тема   Відповісти
Автор Повідомлення
Omikron 
VIP


З нами з: 03.01.12
Востаннє: 30.11.16
Повідомлень: 297

2014-10-07 11:02  
Монті Пайтон і Священний Грааль / Monty Python and the Holy Grail (1975) 720p Ukr/Eng | sub Eng



Жанр: комедія
Країна: Велика Британія



Кінокомпанія: Michael White Productions, National Film Trustee Company, Python (Monty) Pictures
Режисер: Террі Гілліам, Террі Джонс
Актори: Грехем Чепмен, Джон Кліз, Террі Гілліам, Ерік Айдл, Террі Джонс, Майкл Пелін

Сюжет:
Легендарний (без перебільшень) король Артур вкупі зі своїми відданими лицарями вирушає на пошуки Священного Грааля, адже у цю важливу подорож їх відрядив сам Господь. І дарма що замість справжніх коней – лише звук від кокосових шкаралуп.


Українською мовою озвучено студією Омікрон на замовлення HURTOM.COM


Тривалість: 01:32:07
Якість:
Відео:
кодек:
розмір кадру: 1200x720
бітрейт: 6286 кб/с
CRF: 21

Аудіо # 1:
мова: українська | Омікрон
переклад: багатоголосий закадровий
кодек: 5.1
бітрейт: 448 кб/с

Аудіо # 2:
мова: англійська
переклад: оригінал
кодек: 5.1
бітрейт: 448 кб/с

Субтитри:
мова: англійська
тип: програмні (м'які)
формат: *.srt

Звіт MediaInfo
General
Unique ID : 217187404363117585622903087950964382778 (0xA364C5C6892DB84EA16AB4E1E3C2DC3A)
Complete name : Monty Python and the Holy Grail (1975) [ukr,eng] 720p [Hurtom].mkv
Format : Matroska
Format version : Version 4 / Version 2
File size : 4.70 GiB
Duration : 1h 32mn
Overall bit rate : 7 310 Kbps
Movie name : Монті Пайтон і Священний Грааль / Monty Python and the Holy Grail (1975) [Hurtom]
Encoded date : UTC 2014-10-07 10:20:40
Writing application : mkvmerge v7.0.0 ('Where We Going') 32bit built on Jun 9 2014 15:08:34
Writing library : libebml v1.3.0 + libmatroska v1.4.1
DURATION : 01:24:52.383000000
NUMBER_OF_FRAMES : 1017
NUMBER_OF_BYTES : 40492
_STATISTICS_WRITING_APP : mkvmerge v7.0.0 ('Where We Going') 32bit built on Jun 9 2014 15:08:34
_STATISTICS_WRITING_DATE_UTC : 2014-10-07 10:20:40
_STATISTICS_TAGS : BPS DURATION NUMBER_OF_FRAMES NUMBER_OF_BYTES
Attachment : Yes

Video
ID : 1
Format : AVC
Format/Info : Advanced Video Codec
Format profile : [email protected]
Format settings, CABAC : Yes
Format settings, ReFrames : 8 frames
Codec ID : V_MPEG4/ISO/AVC
Duration : 1h 32mn
Bit rate : 6 269 Kbps
Width : 1 200 pixels
Height : 720 pixels
Display aspect ratio : 1.667
Frame rate mode : Constant
Frame rate : 23.976 fps
Color space : YUV
Chroma subsampling : 4:2:0
Bit depth : 8 bits
Scan type : Progressive
Bits/(Pixel*Frame) : 0.303
Stream size : 4.03 GiB (86%)
Writing library : core 142 r2453 ea0ca51
Encoding settings : cabac=1 / ref=8 / deblock=1:-1:-1 / analyse=0x3:0x133 / me=umh / subme=10 / psy=1 / psy_rd=1.00:0.15 / mixed_ref=1 / me_range=32 / chroma_me=1 / trellis=2 / 8x8dct=1 / cqm=0 / deadzone=21,11 / fast_pskip=0 / chroma_qp_offset=-3 / threads=12 / lookahead_threads=1 / sliced_threads=0 / nr=0 / decimate=1 / interlaced=0 / bluray_compat=0 / constrained_intra=0 / bframes=3 / b_pyramid=2 / b_adapt=2 / b_bias=0 / direct=3 / weightb=1 / open_gop=0 / weightp=2 / keyint=240 / keyint_min=23 / scenecut=40 / intra_refresh=0 / rc_lookahead=60 / rc=crf / mbtree=1 / crf=21.0 / qcomp=0.60 / qpmin=0 / qpmax=69 / qpstep=4 / vbv_maxrate=31250 / vbv_bufsize=31250 / crf_max=0.0 / nal_hrd=none / filler=0 / ip_ratio=1.40 / aq=1:1.00
Default : Yes
Forced : No
DURATION : 01:32:07.564000000
NUMBER_OF_FRAMES : 132529
NUMBER_OF_BYTES : 4430192532
_STATISTICS_WRITING_APP : mkvmerge v7.0.0 ('Where We Going') 32bit built on Jun 9 2014 15:08:34
_STATISTICS_WRITING_DATE_UTC : 2014-10-07 10:20:40
_STATISTICS_TAGS : BPS DURATION NUMBER_OF_FRAMES NUMBER_OF_BYTES

Audio #1
ID : 2
Format : AC-3
Format/Info : Audio Coding 3
Mode extension : CM (complete main)
Format settings, Endianness : Big
Codec ID : A_AC3
Duration : 1h 32mn
Bit rate mode : Constant
Bit rate : 448 Kbps
Channel(s) : 6 channels
Channel positions : Front: L C R, Side: L R, LFE
Sampling rate : 48.0 KHz
Bit depth : 16 bits
Compression mode : Lossy
Stream size : 295 MiB (6%)
Title : Озвучено студією Омікрон на замовлення hurtom.com
Language : Ukrainian
Default : No
Forced : No

Audio #2
ID : 3
Format : AC-3
Format/Info : Audio Coding 3
Mode extension : CM (complete main)
Format settings, Endianness : Big
Codec ID : A_AC3
Duration : 1h 32mn
Bit rate mode : Constant
Bit rate : 448 Kbps
Channel(s) : 6 channels
Channel positions : Front: L C R, Side: L R, LFE
Sampling rate : 48.0 KHz
Bit depth : 16 bits
Compression mode : Lossy
Stream size : 295 MiB (6%)
Title : Original
Language : English
Default : No
Forced : No

Text
ID : 4
Format : UTF-8
Codec ID : S_TEXT/UTF8
Codec ID/Info : UTF-8 Plain Text
Title : Original
Language : English
Default : No
Forced : No
log
[info]: frame I:1160 Avg QP:19.50 size:169144
[info]: frame P:36634 Avg QP:22.85 size: 57037
[info]: frame B:94735 Avg QP:24.91 size: 22637
[info]: consecutive B-frames: 1.8% 3.6% 15.7% 79.0%
[info]: mb I I16..4: 7.9% 77.1% 15.0%
[info]: mb P I16..4: 0.2% 10.2% 0.5% P16..4: 37.6% 25.8% 16.9% 0.6% 0.2% skip: 8.1%
[info]: mb B I16..4: 0.0% 2.4% 0.1% B16..8: 43.0% 11.0% 4.1% direct: 7.8% skip:31.7% L0:42.1% L1:47.4% BI:10.5%
[info]: 8x8 transform intra:92.1% inter:64.8%
[info]: direct mvs spatial:98.3% temporal:1.7%
[info]: coded y,uvDC,uvAC intra: 96.9% 84.8% 61.1% inter: 42.7% 25.3% 3.1%
[info]: i16 v,h,dc,p: 25% 11% 34% 30%
[info]: i8 v,h,dc,ddl,ddr,vr,hd,vl,hu: 6% 6% 14% 11% 14% 13% 13% 11% 12%
[info]: i4 v,h,dc,ddl,ddr,vr,hd,vl,hu: 8% 6% 4% 10% 16% 15% 14% 13% 14%
[info]: i8c dc,h,v,p: 50% 19% 15% 16%
[info]: Weighted P-Frames: Y:14.5% UV:5.1%
[info]: ref P L0: 37.2% 12.7% 21.5% 7.3% 7.2% 4.7% 5.4% 3.0% 0.8% 0.1%
[info]: ref B L0: 71.4% 13.7% 5.9% 3.6% 2.7% 1.9% 0.8%
[info]: ref B L1: 93.8% 6.2%
[info]: kb/s:6411.78



Українське озвучення створено в рамках проекту "Хочеш кіно українською? Замовляй!"

Дякуємо користувачу, що фінансово допоміг проекту:
Sehrg-Gut


Джерело:

Фільми, які було озвучено на замовлення Гуртом (допоможіть озвучити наступні):
М: Місто шукає вбивцю (1931)
Чарівник країни Оз (1939)
Великий диктатор (1940)
Громадянин Кейн (1941)
Подвійна страховка (1944)
Це дивовижне життя (1946)
Викрадачі велосипедів (1948)
Рашьомон (1950)
Сім самураїв (1954)
У випадку вбивства телефонуйте "М" (1954)
Леді та Блудько (1955) нове
12 розгніваних чоловіків (1957)
Сьома печатка (1957)
На північ через північний захід (1959)
Більярдист (1961)
Охоронець (1961)
Вбити пересмішника (1962)
Людина, що вбила Ліберті Веленса (1962)
Вісім з половиною (1963)
Велика прогулянка (1966)
Як Ґрінч украв Різдво! (1966)
Випускник (1967)
Самурай (1967)
Одного разу на Дикому Заході (1968)
Коти-аристократи (1970)
Механічний апельсин (1971)
Навколо світу за 80 днів (1972) нове
Китайський квартал (1974)
Пролітаючи над гніздом зозулі (1975)
Телемережа (1976)
Енні Голл (1977) нове
Мисливець на оленів (1978)
Буття Брайана за Монті Пайтоном (1979)
Коли я буду там (1979)
Мангеттен (1979)
Людина-слон (1980)
Приборкання норовливого (1980)
Скажений бик (1980)
Підводний човен (1981)
Ґанді (1982)
Король комедії (1982) нове
Різдвяна історія (1983)
Амадей (1984)
Барва пурпурова (1985)
Бразилія (1985)
Ран (1985)
Великий мишачий детектив (1986)
Небесний замок Лапута (1986)
Акіра (1988)
Мій сусід Тоторо (1988)
Останній з могікан (1992)
Скажені пси (1992)
Шосе в нікуди (1997) нове
Американська історія Ікс (1998)
Страх і огида в Лас-Вегасі (1998)
Шоу Трумена (1998)
Догма (1999)
Магнолія (1999) нове
Сука любов (2000) нове
Нічия земля (2001)
Родина Тененбаумів (2001)
Тріо з Бельвіля (2003)
Труднощі перекладу (2003)
Бункер (2004)
Готель Руанда (2004)
Тренер Картер (2005)
Льодовиковий період 2 (2006)
Лабіринт Фавна (2006)
Людина з планети Земля (2007)
В тіні місяця (2007)
Голод (2008)
Іп Мен (2008)
Викрадена (2008)
Впусти мене (2008)
Хвиля (2008)
Містер Ніхто (2009)
13 вбивць (2010)
Бетмен: Під червоною маскою (2010)
Іп Мен 2 (2010)
Котяче життя (2010)
Позичайка Аріетті (2010)
Чорний Лебідь (2010)
Місто (2010)
Сенна (2010)
50/50 (2011)
Адвокат на лінкольні (2011)
Дерево життя (2011)
Опівночі в Парижі (2011)
Воїн (2011)
Драйв (2011)
Життя за один день (2011)
Укриття (2011)
Хижа в лісі (2011)
Рейд: Спокута (2011)
Акт вбивства (2012)
Арго (2012)
Безпека не гарантується (2012)
Викрадена 2 (2012)
Збірка промінців надії (2012)
Ернест і Селестіна (2012)
Звірі дикого Півдня (2012)
Лінкольн (2012)
Любов (2012)
Надійні хлопці (2012)
Паркер (2012)
Переваги скромників (2012)
Пліч-о-пліч (2012)
Полювання (2012)
Розірване коло (2012)
Суддя Дредд (2012)
Тридцять хвилин по півночі (2012)
Що б ви зробили (2012)
Американська афера (2013)
Виклик (2013)
Вона (2013)
Ворог (2013)
Всередині Л'ювіна Девіса (2013)
Джо (2013)
Зловісні мерці (2013)
Іда (2013)
Лок (2013)
Небраска (2013)
Неймовірна подорож містера Співета (2013) нове
Побічна дія (2013)
Перед північчю (2013)
Снігобур (2013)
Стокер (2013)
TPB: за межами клавіатури (2013)
Гниле місто (2013)
Бердмен (2014)
Вероніка Марс (2014)
Вроджена вада (2014) нове
Дика (2014) нове
Інтерв'ю (2014) нове
Святий Вінсент (2014)
Пісня моря (2014) нове
Призначення (2014) нове
Шеф-кухар (2014)


Авторський реліз (завантажувати можна без реєстрації)
 Трекер:    Зареєстрований   

Завантажити / скачати фільм українською



відео для новачків



 Зареєстрований:   2014-10-08 15:34
 Розмір:   4.7 GB 
 Оцінка фільму:   8.8/10 (Голосів: 16)
   
uaxpasha 
Свій


З нами з: 05.08.12
Востаннє: 05.12.16
Повідомлень: 53

2015-03-08 23:21  
Чудовий переклад! Омікрон просто забожили тут! Величезне дякую за реліз, сподіваюсь, ще будуть переклади фільмів/скетчів від Монті Пайтон.
Ваш часовий пояс: GMT + 2 Години

Нова тема   Відповісти