Завантажити та скачати торренти українською


Вибач, хочу з тобою одружитися / Scusa ma ti voglio sposare (2010) 1080p 2xUkr/Ita

Нові коментарі

Нова тема   Відповісти
Автор Повідомлення
yura-pro 
Частий відвідувач


З нами з: 11.10.09
Востаннє: 07.12.16
Повідомлень: 30

2014-10-07 10:26  
Вибач, хочу з тобою одружитися / Scusa ma ti voglio sposare (2010) 1080p 2xUkr/Ita






Жанр: мелодрама, романтична комедія
Країна: Італія



Кінокомпанія: Medusa Film, Arella Film
Режисер: Федеріко Моччіа
Актори: Рауль Бова, Мікела Кваттрочіокке, Лука Анджелетті, Франческа Антонеллі, Чечилія Даззи, Ігнаціо Оліва, Франческа Ферраццо та інші

Сюжет:
Алекс і Нікі, незважаючи на різницю у віці, вирішили одружитися. Але чим ближче день весілля, тим частіше у Нікі виникають сумніви з приводу цієї події. Та й одружені друзі Алекса не хочуть, щоб він «повісив собі на шию камінь», як зробили вони самі. Адже сімейне життя - штука складна, і схожа на пазли, які потрібно обдумано складати. Чи зможуть Алекс і Нікі зважитися на такий вчинок?


Тривалість: 01:49:06
Якість: 1080p
Відео:
кодек:
розмір кадру: 1920 х 816
бітрейт: 15700 кб/с

Аудіо # 1:
мова: українська
переклад: професійний дубльований
кодек: 5.1
бітрейт: 448 кб/с

Аудіо # 2:
мова: українська
переклад: двоголосий закадровий
кодек: 2.0
бітрейт: 192 кб/с
Джерело озвучення:


Аудіо # 3:
мова: італійська
переклад: оригінал
кодек: 5.1
бітрейт: 448 кб/с

Завантажити звукову доріжку: Аудіо # 1 Аудіо # 2

MediaInfo
General
Unique ID : 253713167421105582773036940465104375151 (0xBEDF60EEB15EFB11A4CAE09326164D6F)
Complete name : D:\Video\Movie\Scusa ma ti voglio sposare (2010) 1080p [UKR_ITA] [Hurtom].mkv
Format : Matroska
Format version : Version 4 / Version 2
File size : 12.7 GiB
Duration : 1h 49mn
Overall bit rate : 16.7 Mbps
Movie name : [hurtom.com]
Encoded date : UTC 2014-10-07 08:08:06
Writing application : mkvmerge v7.2.0 ('On Every Street') 64bit built on Sep 13 2014 15:52:10
Writing library : libebml v1.3.0 + libmatroska v1.4.1
DURATION : 01:49:06.016000000
NUMBER_OF_FRAMES : 204563
NUMBER_OF_BYTES : 366576896
_STATISTICS_WRITING_APP : mkvmerge v7.2.0 ('On Every Street') 64bit built on Sep 13 2014 15:52:10
_STATISTICS_WRITING_DATE_UTC : 2014-10-07 08:08:06
_STATISTICS_TAGS : BPS DURATION NUMBER_OF_FRAMES NUMBER_OF_BYTES

Video
ID : 1
Format : AVC
Format/Info : Advanced Video Codec
Format profile : [email protected]
Format settings, CABAC : Yes
Format settings, ReFrames : 4 frames
Codec ID : V_MPEG4/ISO/AVC
Duration : 1h 49mn
Bit rate : 15.7 Mbps
Width : 1 920 pixels
Height : 816 pixels
Display aspect ratio : 2.35:1
Frame rate mode : Constant
Frame rate : 24.000 fps
Color space : YUV
Chroma subsampling : 4:2:0
Bit depth : 8 bits
Scan type : Progressive
Bits/(Pixel*Frame) : 0.417
Stream size : 11.7 GiB (92%)
Writing library : core 105 r1724 b02df7b
Encoding settings : cabac=1 / ref=4 / deblock=1:-3:-3 / analyse=0x3:0x113 / me=umh / subme=7 / psy=1 / psy_rd=1.00:0.00 / mixed_ref=1 / me_range=32 / chroma_me=1 / trellis=1 / 8x8dct=1 / cqm=0 / deadzone=21,11 / fast_pskip=1 / chroma_qp_offset=-2 / threads=12 / sliced_threads=0 / nr=0 / decimate=1 / interlaced=0 / constrained_intra=0 / bframes=3 / b_pyramid=2 / b_adapt=2 / b_bias=0 / direct=1 / weightb=1 / open_gop=0 / weightp=2 / keyint=240 / keyint_min=24 / scenecut=40 / intra_refresh=0 / rc_lookahead=50 / rc=2pass / mbtree=1 / bitrate=15661 / ratetol=1.0 / qcomp=0.60 / qpmin=10 / qpmax=51 / qpstep=4 / cplxblur=20.0 / qblur=0.5 / ip_ratio=1.40 / aq=1:1.00
Language : Italian
Default : Yes
Forced : No
Color primaries : BT.709
Transfer characteristics : BT.709
Matrix coefficients : BT.709

Audio #1
ID : 2
Format : AC-3
Format/Info : Audio Coding 3
Mode extension : CM (complete main)
Format settings, Endianness : Big
Codec ID : A_AC3
Duration : 1h 49mn
Bit rate mode : Constant
Bit rate : 448 Kbps
Channel(s) : 6 channels
Channel positions : Front: L C R, Side: L R, LFE
Sampling rate : 48.0 KHz
Bit depth : 16 bits
Compression mode : Lossy
Stream size : 350 MiB (3%)
Title : Dubbing
Language : Ukrainian
Default : Yes
Forced : No

Audio #2
ID : 3
Format : AC-3
Format/Info : Audio Coding 3
Mode extension : CM (complete main)
Format settings, Endianness : Big
Codec ID : A_AC3
Duration : 1h 49mn
Bit rate mode : Constant
Bit rate : 192 Kbps
Channel(s) : 2 channels
Channel positions : Front: L R
Sampling rate : 48.0 KHz
Bit depth : 16 bits
Compression mode : Lossy
Stream size : 150 MiB (1%)
Title : K1
Language : Ukrainian
Default : No
Forced : No

Audio #3
ID : 4
Format : AC-3
Format/Info : Audio Coding 3
Mode extension : CM (complete main)
Format settings, Endianness : Big
Codec ID : A_AC3
Duration : 1h 49mn
Bit rate mode : Constant
Bit rate : 448 Kbps
Channel(s) : 6 channels
Channel positions : Front: L C R, Side: L R, LFE
Sampling rate : 48.0 KHz
Bit depth : 16 bits
Compression mode : Lossy
Stream size : 350 MiB (3%)
Language : Italian
Default : No
Forced : No
Скріншоти




Джерело: &
Подяка за звук: (1)Vasua95, (2)POMEO


 Трекер:    Зареєстрований   

Завантажити / скачати фільм українською



відео для новачків



 Зареєстрований:   2014-10-07 10:26
 Розмір:   12.74 GB 
 Оцінка фільму:   10/10 (Голосів: 3)
   
igor911 
Відео Гуртом
Відео Гуртом


З нами з: 18.01.08
Востаннє: 08.12.16
Повідомлень: 5193

2014-10-07 11:00  
Сюди теж можеш додати укр.постер:
Код:
[url=http://img.hurtom.com/image/qut][img]http://img.hurtom.com/i/2014/10/scusa_ma_ti_voglio_sposare.jpg[/img][/url]
постер

Ваш часовий пояс: GMT + 2 Години

Нова тема   Відповісти