Завантажити та скачати торренти українською


Грозовий понеділок / Stormy Monday (1988) 720p Ukr/Eng | Sub Eng

Нові коментарі

Нова тема   Відповісти
Автор Повідомлення
Anonymous 







2014-10-06 22:51  
Грозовий понеділок / Stormy Monday (1988) 720p Ukr/Eng | Sub Eng



Жанр: драма, мелодрама, кримінальний, романтичний
Країна: США, Велика Британія



Кінокомпанія: Atlantic Entertainment Group, British Screen Productions, Channel Four Films
Режисер: Майк Фіггіс / Mike Figgis
Актори: Мелані Гріффіт / Melanie Griffith, Шон Бін / Sean Bean, Стінг / Sting, Томмі Лі Джонс / Tommy Lee Jones, Джеймс Космо / James Cosmo та інші

Сюжет:
Дія фільму відбувається в Ньюкаслі - місті, що переживає економічний занепад, де людям відчайдушно потрібна робота. Американський магнат з темним минулим на ім'я Космо вирішує провести грандіозну операцію по відмиванню грошей, скуповуючи міську нерухомість. Фінні, власник процвітаючого джаз-клубу, відмовляється від щедрих пропозицій американця. Але Космо не звик відступати і має намір добитися свого за будь-яку ціну.
Це основний сюжет, та насправді головне відбувається між іншими персонажами стрічки - прибиральником та офіціанткою.


Рейтинг MPAA: R - особам до 17 років обов'язкова присутність батьків або дорослого опікуна
Вікова категорія: 16+

Тривалість: 01:32:49
Якість: 720p
Відео: (джерело Stormy Monday 1988 1080p ITA Blu-ray AVC)
кодек:
розмір кадру: 1280x690
бітрейт: 6290 кбіт/с

Аудіо # 1: , запис з VHS
мова: українська
переклад: двоголосий закадровий
кодек: 2.0
бітрейт: 192 кбіт/с

Аудіо # 2:
мова: англійська
переклад: оригінал
кодек: 2.0
бітрейт: 448 кбіт/с

Субтитри:
мова: англійська
тип: програмні (м'які)
формат: *.srt

Збережено оригінальні розділи, як на Blu-ray.
MediaInfo
Код:
General
Unique ID                                : 181123318815215464062034153342387207528 (0x88431513CB9740168C84A7010C19BD68)
Complete name                            : Stormy Monday (1988) [Ukr,Eng sub.Eng] 720p [Hurtom & HDClub].mkv
Format                                   : Matroska
Format version                           : Version 4 / Version 2
File size                                : 4.49 GiB
Duration                                 : 1h 32mn
Overall bit rate                         : 6 928 Kbps
Movie name                               : Грозовий понеділок / Stormy Monday (1988) 720p [Hurtom & HDClub]
Encoded date                             : UTC 2014-10-06 16:06:49
Writing application                      : mkvmerge v7.2.0 ('On Every Street') 64bit built on Sep 13 2014 15:52:10
Writing library                          : libebml v1.3.0 + libmatroska v1.4.1
DURATION                                 : 01:32:48.928000000
NUMBER_OF_FRAMES                         : 174029
NUMBER_OF_BYTES                          : 133654272
_STATISTICS_WRITING_APP                  : mkvmerge v7.2.0 ('On Every Street') 64bit built on Sep 13 2014 15:52:10
_STATISTICS_WRITING_DATE_UTC             : 2014-10-06 16:06:49
_STATISTICS_TAGS                         : BPS DURATION NUMBER_OF_FRAMES NUMBER_OF_BYTES

Video
ID                                       : 1
Format                                   : AVC
Format/Info                              : Advanced Video Codec
Format profile                           : [email protected]
Format settings, CABAC                   : Yes
Format settings, ReFrames                : 9 frames
Codec ID                                 : V_MPEG4/ISO/AVC
Duration                                 : 1h 32mn
Bit rate                                 : 6 290 Kbps
Width                                    : 1 280 pixels
Height                                   : 690 pixels
Display aspect ratio                     : 1.85:1
Frame rate mode                          : Constant
Frame rate                               : 24.000 fps
Color space                              : YUV
Chroma subsampling                       : 4:2:0
Bit depth                                : 8 bits
Scan type                                : Progressive
Bits/(Pixel*Frame)                       : 0.297
Stream size                              : 3.99 GiB (89%)
Title                                    : Грозовий понеділок / Stormy Monday / Грозовой понедельник (1988) 720p [HDClub]
Writing library                          : core 116 r2074 2641b9e
Encoding settings                        : cabac=1 / ref=9 / deblock=1:-3:-3 / analyse=0x3:0x133 / me=umh / subme=11 / psy=1 / psy_rd=1.00:0.00 / mixed_ref=1 / me_range=64 / chroma_me=1 / trellis=2 / 8x8dct=1 / cqm=0 / deadzone=21,11 / fast_pskip=0 / chroma_qp_offset=-2 / threads=12 / sliced_threads=0 / nr=0 / decimate=0 / interlaced=0 / bluray_compat=0 / constrained_intra=0 / bframes=8 / b_pyramid=2 / b_adapt=2 / b_bias=0 / direct=3 / weightb=1 / open_gop=0 / weightp=2 / keyint=250 / keyint_min=24 / scenecut=40 / intra_refresh=0 / rc_lookahead=40 / rc=2pass / mbtree=0 / bitrate=6290 / ratetol=1.0 / qcomp=0.75 / qpmin=0 / qpmax=69 / qpstep=4 / cplxblur=20.0 / qblur=0.5 / vbv_maxrate=50000 / vbv_bufsize=62500 / nal_hrd=none / ip_ratio=1.40 / pb_ratio=1.30 / aq=1:0.80
Language                                 : English
Default                                  : Yes
Forced                                   : No
Color primaries                          : BT.709
Transfer characteristics                 : BT.709
Matrix coefficients                      : BT.709
DURATION                                 : 01:32:49.000000000
NUMBER_OF_FRAMES                         : 133656
NUMBER_OF_BYTES                          : 4375740338
_STATISTICS_WRITING_APP                  : mkvmerge v7.2.0 ('On Every Street') 64bit built on Sep 13 2014 15:52:10
_STATISTICS_WRITING_DATE_UTC             : 2014-10-06 16:06:49
_STATISTICS_TAGS                         : BPS DURATION NUMBER_OF_FRAMES NUMBER_OF_BYTES

Audio #1
ID                                       : 2
Format                                   : AC-3
Format/Info                              : Audio Coding 3
Mode extension                           : CM (complete main)
Format settings, Endianness              : Big
Codec ID                                 : A_AC3
Duration                                 : 1h 32mn
Bit rate mode                            : Constant
Bit rate                                 : 192 Kbps
Channel(s)                               : 2 channels
Channel positions                        : Front: L R
Sampling rate                            : 48.0 KHz
Bit depth                                : 16 bits
Compression mode                         : Lossy
Delay relative to video                  : 18ms
Stream size                              : 127 MiB (3%)
Title                                    : DVO [Inter, VHS] 2.0 192 kbps [Hurtom-NemoInFire, boltendahl][-14ms]
Language                                 : Ukrainian
Default                                  : Yes
Forced                                   : No

Audio #2
ID                                       : 3
Format                                   : AC-3
Format/Info                              : Audio Coding 3
Format profile                           : Dolby Digital
Mode extension                           : CM (complete main)
Format settings, Endianness              : Big
Codec ID                                 : A_AC3
Duration                                 : 1h 32mn
Bit rate mode                            : Constant
Bit rate                                 : 448 Kbps
Channel(s)                               : 2 channels
Channel positions                        : Front: L R
Sampling rate                            : 48.0 KHz
Bit depth                                : 16 bits
Compression mode                         : Lossy
Stream size                              : 297 MiB (6%)
Title                                    : Original 2.0 448 kbps
Language                                 : English
Default                                  : No
Forced                                   : No

Text
ID                                       : 4
Format                                   : UTF-8
Codec ID                                 : S_TEXT/UTF8
Codec ID/Info                            : UTF-8 Plain Text
Language                                 : English
Default                                  : No
Forced                                   : No

Menu
00:00:00.000                             : en:00:00:00.000
00:13:16.542                             : en:00:13:16.542
00:20:51.167                             : en:00:20:51.167
00:34:18.375                             : en:00:34:18.375
00:44:01.333                             : en:00:44:01.333
00:55:06.375                             : en:00:55:06.375
01:03:59.958                             : en:01:03:59.958
01:18:30.542                             : en:01:18:30.542




Джерела та подяки: &
ріп відео, оригінальні звук та субтитри - serin (HDClub); українська доріжка - NemoInFire - зведення, boltendahl - надання запису з VHS; українізований постер - somnambula (всі - Гуртом).


ЗАЛИШАЙТЕСЬ ЯКОМОГА ДОВШЕ НА РОЗДАЧІ!

СКАЧАВ САМ - ДАЙ СКАЧАТИ ІНШИМ


Срібний реліз (на рейтинг впливає 50% завантаженого)
 Трекер:    Зареєстрований   

Завантажити / скачати фільм українською



відео для новачків



 Зареєстрований:   2014-10-06 22:51
 Розмір:   4.49 GB 
 Оцінка фільму:   3.1/10 (Голосів: 14)
   
Інші релізи
   Грозовий понеділок / Stormy Monday (1988) NemoInFire  3 / 0   1.46 GB   2014-10-04 22:23 
Матійченко 
Поважний учасник


З нами з: 11.06.08
Востаннє: 28.11.16
Повідомлень: 236

2014-11-02 15:30  
Хороший акторський склад. Але, як на мій смак, фільм нуднуватий. Під час перегляду ледь не заснув.
Ваш часовий пояс: GMT + 2 Години

Нова тема   Відповісти