Завантажити та скачати торренти українською


Ідеальний чоловік / An Ideal Husband (1999) 720p Ukr/Eng | Sub Eng

Нові коментарі

Нова тема   Відповісти
Автор Повідомлення
Anonymous 







2014-10-06 16:55  
Ідеальний чоловік / An Ideal Husband (1999) 720p Ukr/Eng | Sub Eng



Жанр: мелодрама, комедія
Країна: Велика Британія, США



Кінокомпанія: Arts Council of England, Canal+, Fragile Films, Icon Entertainment International, , Icon Productions, Miramax Films, Pathé Pictures International
Режисер: Олівер Паркер / Oliver Parker
Актори: Кейт Бланшет / Cate Blanchett, Мінні Драйвер / Minnie Driver, Руперт Еверетт / Rupert Everett, Джуліан Мур / Julianne Moore, Джеремі Нортем / Jeremy Northam, Пітер Вон / Peter Vaughan, Бен Пуллен / Ben Pullen, Марша Фітцалан / Marsha Fitzalan, Ліндсей Данкан / Lindsay Duncan, Невілл Філліпс / Neville Phillips та інші

Сюжет:
Роберт Чілтерн, який обіймає посаду депутата Британського парламенту, чесний і непідкупний. Його дружина також є прикладом високої моральності. Але минуле Роберта не бездоганне. Леді Лаура Чівлі намагається його шантажувати.

Під загрозою опиняється щасливий шлюб. Роберту Чілтерну на допомогу приходить Горінг, його кращий друг. Він починає діяти проти шантажистки відповідними методами...


Рейтинг MPAA: PG-13 - дітям до 13 років перегляд не бажаний
Вікова категорія: 12+

Тривалість: 01:37:47
Якість: 720p [TayTO]
Відео:
кодек:
розмір кадру: 1280x692
бітрейт: 7367 кбіт/с [crf=16.6]

Аудіо # 1:
мова: українська
переклад: багатоголосий закадровий
ролі озвучили: Лідія Муращенко, Євген Пашин, Олег Лепенець і Людмила Ардельян
кодек: 2.0
бітрейт: 192 кбіт/с

Аудіо # 2:
мова: англійська
переклад: оригінал
кодек: 5.1
бітрейт: 1509 кбіт/с

Субтитри:
мова: англійська
тип: програмні (м'які)
формат: *.srt

Збережено оригінальні розділи, як на Blu-ray.
MediaInfo
Код:
General
Unique ID                                : 208174094809826322333479824019319473668 (0x9C9CDF4E010032509E95D8FC2690C604)
Complete name                            : An Ideal Husband (1999) [Ukr,Eng sub.Eng] 720p [Hurtom & HDClub].mkv
Format                                   : Matroska
Format version                           : Version 4 / Version 2
File size                                : 6.32 GiB
Duration                                 : 1h 37mn
Overall bit rate                         : 9 252 Kbps
Movie name                               : Ідеальний чоловік / An Ideal Husband (1999) 720p [Hurtom & HDClub]
Encoded date                             : UTC 2014-10-06 12:54:09
Writing application                      : mkvmerge v7.2.0 ('On Every Street') 64bit built on Sep 13 2014 15:52:10
Writing library                          : libebml v1.3.0 + libmatroska v1.4.1
DURATION                                 : 01:31:44.041000000
NUMBER_OF_FRAMES                         : 1514
NUMBER_OF_BYTES                          : 53462
_STATISTICS_WRITING_APP                  : mkvmerge v7.2.0 ('On Every Street') 64bit built on Sep 13 2014 15:52:10
_STATISTICS_WRITING_DATE_UTC             : 2014-10-06 12:54:09
_STATISTICS_TAGS                         : BPS DURATION NUMBER_OF_FRAMES NUMBER_OF_BYTES

Video
ID                                       : 1
Format                                   : AVC
Format/Info                              : Advanced Video Codec
Format profile                           : [email protected]
Format settings, CABAC                   : Yes
Format settings, ReFrames                : 9 frames
Codec ID                                 : V_MPEG4/ISO/AVC
Duration                                 : 1h 37mn
Bit rate                                 : 7 367 Kbps
Width                                    : 1 280 pixels
Height                                   : 692 pixels
Display aspect ratio                     : 1.85:1
Frame rate mode                          : Constant
Frame rate                               : 24.000 fps
Color space                              : YUV
Chroma subsampling                       : 4:2:0
Bit depth                                : 8 bits
Scan type                                : Progressive
Bits/(Pixel*Frame)                       : 0.347
Stream size                              : 5.03 GiB (80%)
Title                                    : Ідеальний чоловік / An Ideal Husband / Идеальный муж (1999) 720p [TayTO]
Writing library                          : core 142 r2431kMod ac76440
Encoding settings                        : cabac=1 / ref=9 / deblock=1:-3:-3 / analyse=0x3:0x133 / me=tesa / subme=11 / psy=1 / fade_compensate=0.00 / psy_rd=1.10:0.00 / mixed_ref=1 / me_range=24 / chroma_me=1 / trellis=2 / 8x8dct=1 / cqm=0 / deadzone=21,11 / fast_pskip=0 / chroma_qp_offset=-2 / threads=12 / lookahead_threads=3 / sliced_threads=0 / nr=0 / decimate=1 / interlaced=0 / bluray_compat=0 / constrained_intra=0 / fgo=0 / bframes=11 / b_pyramid=2 / b_adapt=2 / b_bias=0 / direct=3 / weightb=1 / open_gop=0 / weightp=2 / keyint=250 / keyint_min=24 / scenecut=40 / intra_refresh=0 / rc=crf / mbtree=0 / crf=16.6000 / qcomp=0.70 / qpmin=0 / qpmax=69 / qpstep=4 / ip_ratio=1.30 / pb_ratio=1.20 / aq=1:0.65
Language                                 : English
Default                                  : Yes
Forced                                   : No
Matrix coefficients                      : BT.709
DURATION                                 : 01:37:47.500000000
NUMBER_OF_FRAMES                         : 140820
NUMBER_OF_BYTES                          : 5536417986
_STATISTICS_WRITING_APP                  : mkvmerge v7.2.0 ('On Every Street') 64bit built on Sep 13 2014 15:52:10
_STATISTICS_WRITING_DATE_UTC             : 2014-10-06 12:54:09
_STATISTICS_TAGS                         : BPS DURATION NUMBER_OF_FRAMES NUMBER_OF_BYTES

Audio #1
ID                                       : 2
Format                                   : AC-3
Format/Info                              : Audio Coding 3
Mode extension                           : CM (complete main)
Format settings, Endianness              : Big
Codec ID                                 : A_AC3
Duration                                 : 1h 37mn
Bit rate mode                            : Constant
Bit rate                                 : 192 Kbps
Channel(s)                               : 2 channels
Channel positions                        : Front: L R
Sampling rate                            : 48.0 KHz
Bit depth                                : 16 bits
Compression mode                         : Lossy
Stream size                              : 134 MiB (2%)
Title                                    : MVO [TET] 2.0 192 kbps [Hurtom-willian,xslim]
Language                                 : Ukrainian
Default                                  : Yes
Forced                                   : No

Audio #2
ID                                       : 3
Format                                   :
Format/Info                              : Digital Theater Systems
Mode                                     : 16
Format settings, Endianness              : Big
Codec ID                                 : A_DTS
Duration                                 : 1h 37mn
Bit rate mode                            : Constant
Bit rate                                 : 1 509 Kbps
Channel(s)                               : 6 channels
Channel positions                        : Front: L C R, Side: L R, LFE
Sampling rate                            : 48.0 KHz
Bit depth                                : 24 bits
Compression mode                         : Lossy
Stream size                              : 1.03 GiB (16%)
Title                                    : Original 5.1 1509 kbps
Language                                 : English
Default                                  : No
Forced                                   : No

Text
ID                                       : 4
Format                                   : UTF-8
Codec ID                                 : S_TEXT/UTF8
Codec ID/Info                            : UTF-8 Plain Text
Language                                 : English
Default                                  : No
Forced                                   : No

Menu
00:00:00.000                             : en:00:00:00.000
00:02:32.042                             : en:00:02:32.042
00:05:24.750                             : en:00:05:24.750
00:10:34.417                             : en:00:10:34.417
00:17:53.542                             : en:00:17:53.542
00:26:50.792                             : en:00:26:50.792
00:33:11.375                             : en:00:33:11.375
00:37:36.250                             : en:00:37:36.250
00:44:12.833                             : en:00:44:12.833
00:53:48.500                             : en:00:53:48.500
01:01:56.667                             : en:01:01:56.667
01:12:46.500                             : en:01:12:46.500
01:19:36.375                             : en:01:19:36.375
01:32:03.958                             : en:01:32:03.958
01:33:02.708                             : en:01:33:02.708




Джерела та подяки: &
ріп відео, оригінальні звук та субтитри - TayTO (HDbits), madoff (HDClub); українська доріжка - willian - зведення, xslim - запис з ТБ (обоє - Гуртом).


ЗАЛИШАЙТЕСЬ ЯКОМОГА ДОВШЕ НА РОЗДАЧІ!

СКАЧАВ САМ - ДАЙ СКАЧАТИ ІНШИМ


Срібний реліз (на рейтинг впливає 50% завантаженого)
 Трекер:    Зареєстрований   

Завантажити / скачати фільм українською



відео для новачків



 Зареєстрований:   2014-10-06 16:55
 Розмір:   6.32 GB 
 Оцінка фільму:   3.1/10 (Голосів: 13)
   
Інші релізи
   Ідеальний чоловік / An Ideal Husband (1999) willian  2 / 0   1.6 GB   2013-06-24 16:54 
Ваш часовий пояс: GMT + 2 Години

Нова тема   Відповісти