Завантажити та скачати торренти українською


Власність диявола / The Devil's Own (1997) 720p Ukr/Eng | Sub Multi

Нові коментарі

Нова тема   Відповісти
Автор Повідомлення
Anonymous 







2014-10-06 11:53  
Власність диявола / The Devil's Own (1997) 720p Ukr/Eng | Sub Multi



Альтернативний постер



Жанр: трилер, драма, кримінальний, бойовик
Країна: США, Ірландія



Кінокомпанія: Columbia Pictures Corporation
Режисер: Алан Дж. Пакула / Alan J. Pakula
Актори: Гаррісон Форд / Harrison Ford, Бред Пітт / Brad Pitt, Маргарет Колін / Margaret Colin, Рубен Бладес / Rubén Blades, Тріт Вільямс / Treat Williams, Джордж Хірн / George Hearn, Мітч Райан / Mitchell Ryan, Наташа МакЕлхоун / Natascha McElhone, Пол Ронан / Paul Ronan, Саймон Джонс / Simon Jones та інші

Сюжет:
Френкі Мак Гуайр - найнебезпечніший терорист Ірландської Республіканської Армії. Прибувши до Америки з місією придбання зброї, він знаходить притулок в будинку Тома О'Міри, Нью-Йоркського поліцейського, який не знає нічого про особу та реальне життя свого гостя. Все відкривається, коли сім'я Тома стикається з терористами з вини Френкі. Принципи поліцейського і юного месника приходять в суперечність. Боротьба між головними героями приводить до несподіваної розв'язки…


Рейтинг MPAA: R - особам до 17 років обов'язкова присутність батьків або дорослого опікуна
Вікова категорія: 16+

Тривалість: 01:51:16
Якість: 720p [CRiSC]
Відео:
кодек:
розмір кадру: 1280x534
бітрейт: 9000 кбіт/с

Аудіо # 1:
мова: українська
переклад: багатоголосий закадровий - Так Треба Продакшн
кодек: 2.0
бітрейт: 320 кбіт/с

Аудіо # 2:
мова: англійська
переклад: оригінал
кодек: 5.1
бітрейт: 1510 кбіт/с

Субтитри #1-7:
мова: англійська, болгарська, грецька, польська, португальська, румунська, шведська
тип: програмні (м'які)
формат: *.srt

Збережено оригінальні розділи, як на Blu-ray.
MediaInfo
Код:
General
Unique ID                                : 190152082022275408702324966094233954255 (0x8F0DF578DC2B5580BD97F049191467CF)
Complete name                            : The Devil's Own (1997) [Ukr,Eng sub.Multi] 720p [Hurtom & HDClub].mkv
Format                                   : Matroska
Format version                           : Version 4 / Version 2
File size                                : 8.42 GiB
Duration                                 : 1h 51mn
Overall bit rate                         : 10.8 Mbps
Movie name                               : Власність диявола / The Devil's Own (1997) 720p [Hurtom & HDClub]
Encoded date                             : UTC 2014-10-06 07:28:54
Writing application                      : mkvmerge v7.2.0 ('On Every Street') 64bit built on Sep 13 2014 15:52:10
Writing library                          : libebml v1.3.0 + libmatroska v1.4.1
DURATION                                 : 01:45:42.456000000
NUMBER_OF_FRAMES                         : 646
NUMBER_OF_BYTES                          : 24367
_STATISTICS_WRITING_APP                  : mkvmerge v7.2.0 ('On Every Street') 64bit built on Sep 13 2014 15:52:10
_STATISTICS_WRITING_DATE_UTC             : 2014-10-06 07:28:54
_STATISTICS_TAGS                         : BPS DURATION NUMBER_OF_FRAMES NUMBER_OF_BYTES

Video
ID                                       : 1
Format                                   : AVC
Format/Info                              : Advanced Video Codec
Format profile                           : [email protected]
Format settings, CABAC                   : Yes
Format settings, ReFrames                : 12 frames
Codec ID                                 : V_MPEG4/ISO/AVC
Duration                                 : 1h 51mn
Bit rate                                 : 9 000 Kbps
Width                                    : 1 280 pixels
Height                                   : 534 pixels
Display aspect ratio                     : 2.40:1
Frame rate mode                          : Constant
Frame rate                               : 23.976 fps
Color space                              : YUV
Chroma subsampling                       : 4:2:0
Bit depth                                : 8 bits
Scan type                                : Progressive
Bits/(Pixel*Frame)                       : 0.549
Stream size                              : 6.83 GiB (81%)
Title                                    : Власність диявола / The Devil's Own / Собственность дьявола (1997) 720p [CRiSC]
Writing library                          : core 142 r2431 ac76440
Encoding settings                        : cabac=1 / ref=12 / deblock=1:-3:-3 / analyse=0x3:0x133 / me=tesa / subme=10 / psy=1 / psy_rd=1.05:0.00 / mixed_ref=1 / me_range=24 / chroma_me=1 / trellis=2 / 8x8dct=1 / cqm=0 / deadzone=21,11 / fast_pskip=1 / chroma_qp_offset=-2 / threads=12 / lookahead_threads=2 / sliced_threads=0 / nr=0 / decimate=1 / interlaced=0 / bluray_compat=0 / constrained_intra=0 / bframes=9 / b_pyramid=2 / b_adapt=2 / b_bias=0 / direct=3 / weightb=1 / open_gop=0 / weightp=2 / keyint=240 / keyint_min=22 / scenecut=40 / intra_refresh=0 / rc_lookahead=40 / rc=2pass / mbtree=0 / bitrate=9000 / ratetol=1.0 / qcomp=0.60 / qpmin=0 / qpmax=69 / qpstep=4 / cplxblur=20.0 / qblur=0.5 / vbv_maxrate=62500 / vbv_bufsize=78125 / nal_hrd=none / filler=0 / ip_ratio=1.30 / pb_ratio=1.20 / aq=1:1.00
Language                                 : English
Default                                  : Yes
Forced                                   : No

Audio #1
ID                                       : 2
Format                                   : AC-3
Format/Info                              : Audio Coding 3
Mode extension                           : CM (complete main)
Format settings, Endianness              : Big
Codec ID                                 : A_AC3
Duration                                 : 1h 51mn
Bit rate mode                            : Constant
Bit rate                                 : 320 Kbps
Channel(s)                               : 2 channels
Channel positions                        : Front: L R
Sampling rate                            : 48.0 KHz
Bit depth                                : 16 bits
Compression mode                         : Lossy
Stream size                              : 255 MiB (3%)
Title                                    : MVO [TakTrebaProduction] 2.0 320 kbps [Hurtom-Romario_O]
Language                                 : Ukrainian
Default                                  : Yes
Forced                                   : No

Audio #2
ID                                       : 3
Format                                   :
Format/Info                              : Digital Theater Systems
Mode                                     : 16
Format settings, Endianness              : Big
Codec ID                                 : A_DTS
Duration                                 : 1h 51mn
Bit rate mode                            : Constant
Bit rate                                 : 1 510 Kbps
Channel(s)                               : 6 channels
Channel positions                        : Front: L C R, Side: L R, LFE
Sampling rate                            : 48.0 KHz
Bit depth                                : 16 bits
Compression mode                         : Lossy
Stream size                              : 1.18 GiB (14%)
Title                                    : Original 5.1 1509 kbps
Language                                 : English
Default                                  : No
Forced                                   : No

Text #1
ID                                       : 4
Format                                   : UTF-8
Codec ID                                 : S_TEXT/UTF8
Codec ID/Info                            : UTF-8 Plain Text
Language                                 : English
Default                                  : No
Forced                                   : No

Text #2
ID                                       : 5
Format                                   : UTF-8
Codec ID                                 : S_TEXT/UTF8
Codec ID/Info                            : UTF-8 Plain Text
Language                                 : Bulgarian
Default                                  : No
Forced                                   : No

Text #3
ID                                       : 6
Format                                   : UTF-8
Codec ID                                 : S_TEXT/UTF8
Codec ID/Info                            : UTF-8 Plain Text
Language                                 : Greek
Default                                  : No
Forced                                   : No

Text #4
ID                                       : 7
Format                                   : UTF-8
Codec ID                                 : S_TEXT/UTF8
Codec ID/Info                            : UTF-8 Plain Text
Language                                 : Polish
Default                                  : No
Forced                                   : No

Text #5
ID                                       : 8
Format                                   : UTF-8
Codec ID                                 : S_TEXT/UTF8
Codec ID/Info                            : UTF-8 Plain Text
Language                                 : Portuguese
Default                                  : No
Forced                                   : No

Text #6
ID                                       : 9
Format                                   : UTF-8
Codec ID                                 : S_TEXT/UTF8
Codec ID/Info                            : UTF-8 Plain Text
Language                                 : Romanian
Default                                  : No
Forced                                   : No

Text #7
ID                                       : 10
Format                                   : UTF-8
Codec ID                                 : S_TEXT/UTF8
Codec ID/Info                            : UTF-8 Plain Text
Language                                 : Swedish
Default                                  : No
Forced                                   : No

Menu
00:00:00.000                             : :00:00:00.000
00:13:56.711                             : :00:13:56.711
00:21:07.600                             : :00:21:07.600
00:27:06.708                             : :00:27:06.708
00:33:43.897                             : :00:33:43.897
00:38:34.521                             : :00:38:34.521
00:45:38.069                             : :00:45:38.069
00:54:39.026                             : :00:54:39.026
01:00:06.937                             : :01:00:06.937
01:06:36.326                             : :01:06:36.326
01:13:27.653                             : :01:13:27.653
01:18:18.152                             : :01:18:18.152
01:25:13.984                             : :01:25:13.984
01:33:18.843                             : :01:33:18.843
01:38:05.129                             : :01:38:05.129
01:41:56.360                             : :01:41:56.360




Джерела та подяки: &
ріп відео, оригінальні звук та субтитри - CRiSC (HDbits), madoff (HDClub); українська доріжка - Romario_O (Гуртом).


ЗАЛИШАЙТЕСЬ ЯКОМОГА ДОВШЕ НА РОЗДАЧІ!

СКАЧАВ САМ - ДАЙ СКАЧАТИ ІНШИМ


Срібний реліз (на рейтинг впливає 50% завантаженого)
 Трекер:    Зареєстрований   

Завантажити / скачати фільм українською



відео для новачків



 Зареєстрований:   2014-10-06 11:53
 Розмір:   8.42 GB 
 Оцінка фільму:   4/10 (Голосів: 15)
   
Інші релізи
Ваш часовий пояс: GMT + 2 Години

Нова тема   Відповісти