Завантажити та скачати торренти українською


Два дні в Парижі / 2 Days in Paris (2007) 1080p 2xUkr/Eng | Sub Ger

Нові коментарі

Нова тема   Відповісти
Автор Повідомлення
yura-pro 
Частий відвідувач


З нами з: 11.10.09
Востаннє: 08.12.16
Повідомлень: 30

2014-10-05 17:01  
Два дні в Парижі / 2 Days in Paris (2007) 1080p 2xUkr/Eng | Sub Ger



Два дні в Парижі / 2 Days in Paris (2007) 1080p 2xUkr/Eng | Sub Ger



Жанр: драма, мелодрама, комедія
Країна: Франція, Німеччина



Кінокомпанія: Polaris Film Production & Finance, Tempête Sous un Crâne, 3L Filmproduktion
Режисер: Жулі Дельпі
Актори: Адам Голдберг, Жулі Дельпі, Даніель Брюль, Марі Пійє, Альберт Дельпі, Алексія Ландо, Адан Ходоровський, Олександр Наон, Шарлотта Морі-Сент та інші

Сюжет:
Маріон і Джек, намагаючись відродити свої відносини, вирішують відвідати Париж - всесвітнє місто закоханих. Джек знає, що тут живуть батьки Маріон, але він не знає, що тут же живуть і декілька її колишніх бойфрендів...


Тривалість: 01:40:12
Якість: 1080p (2 Days in Paris 2007 1080p GER Blu-ray AVC -HD MA 5.1)
Відео:
кодек:
розмір кадру: 1912 х 1040
бітрейт: 9999 кб/с

Аудіо # 1:
мова: українська
переклад: двоголосий закадровий
кодек: 2.0
бітрейт: 192 кб/с
Джерело озвучення:


Аудіо # 2:
мова: українська
переклад: двоголосий закадровий
кодек: 2.0
бітрейт: 192 кб/с
Джерело озвучення:


Аудіо # 3:
мова: англійська
переклад: оригінал
кодек: -HD 5.1
бітрейт: 1510 кб/с

Субтитри:
мова: німецька
тип: вбудовані (жорсткі)
примітка: на французьку мову

Завантажити звукову доріжку: Аудіо # 1 Аудіо # 2

MediaInfo
General
Unique ID : 195874990537457362902114517627076606574 (0x935C26A587507B1FA5FE2D27FC03FA6E)
Complete name : D:\Video\Movie\2 Days in Paris (2007) 1080p [UKR_ENG] [Hurtom].mkv
Format : Matroska
Format version : Version 4 / Version 2
File size : 8.45 GiB
Duration : 1h 40mn
Overall bit rate mode : Variable
Overall bit rate : 12.0 Mbps
Movie name : [hurtom.com]
Encoded date : UTC 2014-10-04 16:50:51
Writing application : mkvmerge v7.2.0 ('On Every Street') 64bit built on Sep 13 2014 15:52:10
Writing library : libebml v1.3.0 + libmatroska v1.4.1
DURATION : 01:40:12.736000000
NUMBER_OF_FRAMES : 187898
NUMBER_OF_BYTES : 144305664
_STATISTICS_WRITING_APP : mkvmerge v7.2.0 ('On Every Street') 64bit built on Sep 13 2014 15:52:10
_STATISTICS_WRITING_DATE_UTC : 2014-10-04 16:50:51
_STATISTICS_TAGS : BPS DURATION NUMBER_OF_FRAMES NUMBER_OF_BYTES

Video
ID : 1
Format : AVC
Format/Info : Advanced Video Codec
Format profile : [email protected]
Format settings, CABAC : Yes
Format settings, ReFrames : 4 frames
Codec ID : V_MPEG4/ISO/AVC
Duration : 1h 40mn
Nominal bit rate : 9 999 Kbps
Width : 1 912 pixels
Height : 1 040 pixels
Display aspect ratio : 1.85:1
Frame rate mode : Constant
Frame rate : 23.976 fps
Color space : YUV
Chroma subsampling : 4:2:0
Bit depth : 8 bits
Scan type : Progressive
Bits/(Pixel*Frame) : 0.210
Title : 2 Days in Paris (2007)
Writing library : core 142 r2431 ac76440
Encoding settings : cabac=1 / ref=3 / deblock=1:0:0 / analyse=0x3:0x113 / me=hex / subme=7 / psy=1 / psy_rd=1.00:0.00 / mixed_ref=1 / me_range=16 / chroma_me=1 / trellis=1 / 8x8dct=1 / cqm=0 / deadzone=21,11 / fast_pskip=1 / chroma_qp_offset=-2 / threads=6 / lookahead_threads=1 / sliced_threads=0 / nr=0 / decimate=1 / interlaced=0 / bluray_compat=0 / constrained_intra=0 / bframes=3 / b_pyramid=2 / b_adapt=1 / b_bias=0 / direct=1 / weightb=1 / open_gop=0 / weightp=2 / keyint=240 / keyint_min=23 / scenecut=40 / intra_refresh=0 / rc_lookahead=40 / rc=2pass / mbtree=1 / bitrate=9999 / ratetol=1.0 / qcomp=0.60 / qpmin=0 / qpmax=69 / qpstep=4 / cplxblur=20.0 / qblur=0.5 / vbv_maxrate=62500 / vbv_bufsize=78125 / nal_hrd=none / filler=0 / ip_ratio=1.40 / aq=1:1.00
Language : German
Default : Yes
Forced : No

Audio #1
ID : 2
Format : AC-3
Format/Info : Audio Coding 3
Mode extension : CM (complete main)
Format settings, Endianness : Big
Codec ID : A_AC3
Duration : 1h 40mn
Bit rate mode : Constant
Bit rate : 192 Kbps
Channel(s) : 2 channels
Channel positions : Front: L R
Sampling rate : 48.0 KHz
Bit depth : 16 bits
Compression mode : Lossy
Stream size : 138 MiB (2%)
Title : NLO
Language : Ukrainian
Default : Yes
Forced : No

Audio #2
ID : 3
Format : AC-3
Format/Info : Audio Coding 3
Mode extension : CM (complete main)
Format settings, Endianness : Big
Codec ID : A_AC3
Duration : 1h 40mn
Bit rate mode : Constant
Bit rate : 192 Kbps
Channel(s) : 2 channels
Channel positions : Front: L R
Sampling rate : 48.0 KHz
Bit depth : 16 bits
Compression mode : Lossy
Stream size : 138 MiB (2%)
Title : Novy Channel
Language : Ukrainian
Default : No
Forced : No

Audio #3
ID : 4
Format :
Format/Info : Digital Theater Systems
Format profile : MA / Core
Mode : 16
Format settings, Endianness : Big
Codec ID : A_DTS
Duration : 1h 40mn
Bit rate mode : Variable
Bit rate : Unknown / 1 509 Kbps
Channel(s) : 6 channels
Channel positions : Front: L C R, Side: L R, LFE
Sampling rate : 48.0 KHz
Bit depth : 16 bits
Compression mode : Lossless / Lossy
Language : English
Default : No
Forced : No
Скріншоти



Джерело: &
Подяка за звук: (1)POMEO, (2)dvorsky, NemoInFire


 Трекер:    Зареєстрований   

Завантажити / скачати фільм українською



відео для новачків



 Зареєстрований:   2014-10-05 17:01
 Розмір:   8.45 GB 
 Оцінка фільму:   10/10 (Голосів: 4)
   
Інші релізи
Ваш часовий пояс: GMT + 2 Години

Нова тема   Відповісти