Завантажити та скачати торренти українською


Крихітка на мільйон доларів / Million Dollar Baby (2004) 720p Ukr/Eng | Sub Eng

Нові коментарі

Нова тема   Відповісти
Автор Повідомлення
Anonymous 







2014-10-05 11:02  
Крихітка на мільйон доларів / Million Dollar Baby (2004) 720p Ukr/Eng | Sub Eng



Українізований постер



Жанр: драма, спорт
Top 250 #188
4 Оскари, 2 Золотих глобуса, 2 премії Гільдії акторів та премія Сезар


Кінокомпанія: США
Режисер: Клінт Іствуд / Clint Eastwood
Актори: Клінт Іствуд / Clint Eastwood, Гіларі Свенк / Hilary Swank, Морган Фріман / Morgan Freeman, Джей Барушель / Jay Baruchel, Майк Колтер / Mike Colter, Люсія Ріжкер / Lucia Rijker, Браян Ф. О'Бірн / Brian F. O'Byrne, Ентоні Макі / Anthony Mackie, Марґо Мартіндейл / Margo Martindale, Майкл Пенья / Michael Peña та інші

Сюжет:
Фільм розповідає про трагічну долю жінки-боксера Мегі Фітцжералд, яка впевнена в тому, що стане зіркою жіночого боксу. Їй вдалося досягти значних успіхів у цьому виді спорту завдяки своїй завзятості та волі до перемоги. У цьому також величезна заслуга літнього тренера, колишнього бійця, який отримав в особі Мегі кращого в своєму житті вихованця. Між ними виникли міцні, майже родинні стосунки, які не отримали розвитку через трагічний випадок на рингу — Мегі отримала перелом шийного хребця. У її тренера складний вибір — допомогти Мегі піти з життя (як вона цього хоче) або допомогти їй боротися за життя.


Тривалість: 02:12:31
Якість: 720p [CHD]
Відео:
кодек:
розмір кадру: 1280 х 534
бітрейт: 4975 кбіт/с

Аудіо # 1:
мова: українська
переклад: багатоголосий закадровий
ролі озвучили: Клінт Іствуд — Олег Стальчук, Морґан Фрімен — Юрій Гребельник, Анатолій Пашнін і один жіночий голос
кодек: 2.0
бітрейт: 192 кбіт/с

Аудіо # 2:
мова: англійська
переклад: оригінал
кодек: 5.1
бітрейт: 1509 кбіт/с

Субтитри:
мова: англійська
тип: програмні (м'які)
формат: *.srt
MediaInfo
Код:
General
Unique ID                                : 202650286415375729154519470454825253208 (0x9875068628ACFFA1A5DFD0B471F37958)
Complete name                            : Million Dollar Baby (2004) [Ukr,Eng sub.Eng] 720p [Hurtom & HDClub].mkv
Format                                   : Matroska
Format version                           : Version 4 / Version 2
File size                                : 6.18 GiB
Duration                                 : 2h 12mn
Overall bit rate                         : 6 676 Kbps
Movie name                               : Крихітка на мільйон доларів / Million Dollar Baby (2004) 720p [Hurtom & HDClub]
Encoded date                             : UTC 2014-10-05 07:59:24
Writing application                      : mkvmerge v7.2.0 ('On Every Street') 64bit built on Sep 13 2014 15:52:10
Writing library                          : libebml v1.3.0 + libmatroska v1.4.1
DURATION                                 : 02:12:31.040000000
NUMBER_OF_FRAMES                         : 248470
NUMBER_OF_BYTES                          : 190824960
_STATISTICS_WRITING_APP                  : mkvmerge v7.2.0 ('On Every Street') 64bit built on Sep 13 2014 15:52:10
_STATISTICS_WRITING_DATE_UTC             : 2014-10-05 07:59:24
_STATISTICS_TAGS                         : BPS DURATION NUMBER_OF_FRAMES NUMBER_OF_BYTES

Video
ID                                       : 1
Format                                   : AVC
Format/Info                              : Advanced Video Codec
Format profile                           : [email protected]
Format settings, CABAC                   : Yes
Format settings, ReFrames                : 12 frames
Codec ID                                 : V_MPEG4/ISO/AVC
Duration                                 : 2h 12mn
Bit rate                                 : 4 975 Kbps
Width                                    : 1 280 pixels
Height                                   : 534 pixels
Display aspect ratio                     : 2.40:1
Frame rate mode                          : Constant
Frame rate                               : 23.976 fps
Color space                              : YUV
Chroma subsampling                       : 4:2:0
Bit depth                                : 8 bits
Scan type                                : Progressive
Bits/(Pixel*Frame)                       : 0.304
Stream size                              : 4.48 GiB (73%)
Title                                    : Крихітка на мільйон доларів / Million Dollar Baby / Малышка на миллион (2004) 720p [CHD]
Writing library                          : core 102 r1666 d058f37
Encoding settings                        : cabac=1 / ref=12 / deblock=1:-3:-3 / analyse=0x3:0x113 / me=umh / subme=10 / psy=1 / psy_rd=1.05:0.10 / mixed_ref=1 / me_range=32 / chroma_me=1 / trellis=2 / 8x8dct=1 / cqm=2 / deadzone=21,11 / fast_pskip=0 / chroma_qp_offset=-2 / threads=6 / sliced_threads=0 / nr=0 / decimate=1 / interlaced=0 / constrained_intra=0 / bframes=6 / b_pyramid=2 / b_adapt=2 / b_bias=0 / direct=3 / weightb=1 / open_gop=0 / weightp=2 / keyint=250 / keyint_min=25 / scenecut=40 / intra_refresh=0 / rc_lookahead=40 / rc=2pass / mbtree=1 / bitrate=4975 / ratetol=1.0 / qcomp=0.60 / qpmin=10 / qpmax=51 / qpstep=4 / cplxblur=20.0 / qblur=0.5 / vbv_maxrate=50000 / vbv_bufsize=50000 / ip_ratio=1.40 / aq=1:0.80 / nal_hrd=none
Language                                 : English
Default                                  : Yes
Forced                                   : No
DURATION                                 : 02:12:29.060000000
NUMBER_OF_FRAMES                         : 190587
NUMBER_OF_BYTES                          : 4941785478
_STATISTICS_WRITING_APP                  : mkvmerge v7.2.0 ('On Every Street') 64bit built on Sep 13 2014 15:52:10
_STATISTICS_WRITING_DATE_UTC             : 2014-10-05 07:59:24
_STATISTICS_TAGS                         : BPS DURATION NUMBER_OF_FRAMES NUMBER_OF_BYTES

Audio #1
ID                                       : 2
Format                                   : AC-3
Format/Info                              : Audio Coding 3
Mode extension                           : CM (complete main)
Format settings, Endianness              : Big
Codec ID                                 : A_AC3
Duration                                 : 2h 12mn
Bit rate mode                            : Constant
Bit rate                                 : 192 Kbps
Channel(s)                               : 2 channels
Channel positions                        : Front: L R
Sampling rate                            : 48.0 KHz
Bit depth                                : 16 bits
Compression mode                         : Lossy
Delay relative to video                  : 12ms
Stream size                              : 182 MiB (3%)
Title                                    : MVO [K1] 2.0 192 kbps [Hurtom-karvai0][-340ms]
Language                                 : Ukrainian
Default                                  : Yes
Forced                                   : No

Audio #2
ID                                       : 3
Format                                   :
Format/Info                              : Digital Theater Systems
Mode                                     : 16
Format settings, Endianness              : Big
Codec ID                                 : A_DTS
Duration                                 : 2h 12mn
Bit rate mode                            : Constant
Bit rate                                 : 1 509 Kbps
Channel(s)                               : 6 channels
Channel positions                        : Front: L C R, Side: L R, LFE
Sampling rate                            : 48.0 KHz
Bit depth                                : 16 bits
Compression mode                         : Lossy
Stream size                              : 1.40 GiB (23%)
Title                                    : Original 5.1 1536 kbps
Language                                 : English
Default                                  : No
Forced                                   : No

Text
ID                                       : 4
Format                                   : UTF-8
Codec ID                                 : S_TEXT/UTF8
Codec ID/Info                            : UTF-8 Plain Text
Title                                    : Eng full
Language                                 : English
Default                                  : No
Forced                                   : No




Джерела та подяки: &
ріп відео, оригінальні звук та субтитри - CHD (CHDbits), Viraha94 (HDClub); українська доріжка - karvai0 - зведення, Vasua95, xslim, ratbol - запис з ТБ; українізований постер - olgaya (всі - Гуртом).


ЗАЛИШАЙТЕСЬ ЯКОМОГА ДОВШЕ НА РОЗДАЧІ!

СКАЧАВ САМ - ДАЙ СКАЧАТИ ІНШИМ


Срібний реліз (на рейтинг впливає 50% завантаженого)
 Трекер:    Зареєстрований   

Завантажити / скачати фільм українською



відео для новачків



 Зареєстрований:   2014-10-05 11:02
 Розмір:   6.18 GB 
 Оцінка фільму:   4.9/10 (Голосів: 18)
   
Anonymous 







2014-10-05 11:13  
По ТРК Україна та по ICTV була аналогічна озвучка, з К1 краща якість трансляції.
Ваш часовий пояс: GMT + 2 Години

Нова тема   Відповісти