Завантажити та скачати торренти українською


Чарлі та шоколадна фабрика / Charlie and the Chocolate Factory (2005) 720p Ukr/Eng | Sub Multi

Нові коментарі

Нова тема   Відповісти
Автор Повідомлення
Anonymous 







2014-10-04 10:46  
Чарлі та шоколадна фабрика / Charlie and the Chocolate Factory (2005) 720p Ukr/Eng | Sub Multi



Жанр: фентезі, комедія, пригодницький, сімейний
Країна: США, Велика Британія



Кінокомпанія: Warner Bros., Village Roadshow Pictures, Zanuck Company
Режисер: Тім Бартон /Tim Burton
Актори: Джонні Депп /Johnny Depp/, Фредді Хаймор /Freddie Highmore/, Хелена Бонем Картер /Helena Bonham Carter/, Джеймс Фокс /James Fox/, Девід Келлі /David Kelly та інші

Сюжет:
Вiллi Вонка - ексцентричний кондитер, який, втративши зв'язок з сiм'єю, почав шукати наступника. Вклавши золотi квитки в обгортки фiрмових шоколадних плиток, вiн запросив п'ятьох дiтей, яким вони дiстались, на екскурсiю по своїй солодкiй iмперii. Те, що дiтлахи побачили за стiнами пiдприємства, куди 15 рокiв не ступала нога стороннiх, вражає уяву...


Рейтинг MPAA: PG - рекомендується присутність батьків
Вікова категорія: 6+

Тривалість: 01:55:23
Якість: 720p [EbP]
Відео:
кодек:
розмір кадру: 1280x720
бітрейт: 4700 кбіт/с

Аудіо # 1:
мова: українська - Так Треба Продакшн на замовлення ICTV
переклад: багатоголосий закадровий
ролі озвучили: Анатолій Пашнін, Володимир Терещук і два жіночих (Роман Семисал озвучив тільки фінальні титри)
кодек: 2.0
бітрейт: 192 кбіт/с

Аудіо # 2:
мова: англійська
переклад: оригінал
кодек: 5.1
бітрейт: 640 кбіт/с

Субтитри # 1-6:
мова: англійська, французька, німецька, італійська, іспанська, шведська
тип: програмні (м'які)
формат: *.srt

Збережено оригінальні розділи, як на Blu-ray.
MediaInfo
Код:
General
Unique ID                                : 204828554049765245600645327661378190544 (0x9A188B690143C0D8A4372D4E2AAE3CD0)
Complete name                            : Charlie and the Chocolate Factory (2005) [Ukr,Eng sub.Multi] 720p [Hurtom & HDClub].mkv
Format                                   : Matroska
Format version                           : Version 4 / Version 2
File size                                : 4.46 GiB
Duration                                 : 1h 55mn
Overall bit rate                         : 5 533 Kbps
Movie name                               : Чарлі та шоколадна фабрика / Charlie and the Chocolate Factory (2005) 720p [Hurtom & HDClub]
Encoded date                             : UTC 2014-10-04 08:12:00
Writing application                      : mkvmerge v7.2.0 ('On Every Street') 64bit built on Sep 13 2014 15:52:10
Writing library                          : libebml v1.3.0 + libmatroska v1.4.1
DURATION                                 : 01:54:30.530000000
NUMBER_OF_FRAMES                         : 823
NUMBER_OF_BYTES                          : 36279
_STATISTICS_WRITING_APP                  : mkvmerge v7.2.0 ('On Every Street') 64bit built on Sep 13 2014 15:52:10
_STATISTICS_WRITING_DATE_UTC             : 2014-10-04 08:12:00
_STATISTICS_TAGS                         : BPS DURATION NUMBER_OF_FRAMES NUMBER_OF_BYTES

Video
ID                                       : 1
Format                                   : AVC
Format/Info                              : Advanced Video Codec
Format profile                           : [email protected]
Format settings, CABAC                   : Yes
Format settings, ReFrames                : 9 frames
Codec ID                                 : V_MPEG4/ISO/AVC
Duration                                 : 1h 55mn
Bit rate                                 : 4 700 Kbps
Width                                    : 1 280 pixels
Height                                   : 720 pixels
Display aspect ratio                     : 16:9
Frame rate mode                          : Constant
Frame rate                               : 23.976 fps
Color space                              : YUV
Chroma subsampling                       : 4:2:0
Bit depth                                : 8 bits
Scan type                                : Progressive
Bits/(Pixel*Frame)                       : 0.213
Stream size                              : 3.70 GiB (83%)
Title                                    : Чарлі та шоколадна фабрика / Charlie and the Chocolate Factory / Чарли и шоколадная фабрика (2005) 720p [EbP]
Writing library                          : core 116 r2019 9cc407d
Encoding settings                        : cabac=1 / ref=9 / deblock=1:-3:-3 / analyse=0x3:0x133 / me=umh / subme=10 / psy=1 / psy_rd=1.00:0.00 / mixed_ref=1 / me_range=48 / chroma_me=1 / trellis=2 / 8x8dct=1 / cqm=0 / deadzone=21,11 / fast_pskip=1 / chroma_qp_offset=-2 / threads=6 / sliced_threads=0 / nr=0 / decimate=1 / interlaced=0 / bluray_compat=0 / constrained_intra=0 / bframes=7 / b_pyramid=2 / b_adapt=2 / b_bias=0 / direct=3 / weightb=1 / open_gop=0 / weightp=2 / keyint=250 / keyint_min=23 / scenecut=40 / intra_refresh=0 / rc=2pass / mbtree=0 / bitrate=4700 / ratetol=1.0 / qcomp=0.60 / qpmin=0 / qpmax=69 / qpstep=4 / cplxblur=20.0 / qblur=0.5 / ip_ratio=1.40 / pb_ratio=1.30 / aq=1:0.70
Language                                 : English
Default                                  : Yes
Forced                                   : No
DURATION                                 : 01:55:23.500000000
NUMBER_OF_FRAMES                         : 165998
NUMBER_OF_BYTES                          : 4066112489
_STATISTICS_WRITING_APP                  : mkvmerge v7.2.0 ('On Every Street') 64bit built on Sep 13 2014 15:52:10
_STATISTICS_WRITING_DATE_UTC             : 2014-10-04 08:12:00
_STATISTICS_TAGS                         : BPS DURATION NUMBER_OF_FRAMES NUMBER_OF_BYTES

Audio #1
ID                                       : 2
Format                                   : AC-3
Format/Info                              : Audio Coding 3
Mode extension                           : CM (complete main)
Format settings, Endianness              : Big
Codec ID                                 : A_AC3
Duration                                 : 1h 55mn
Bit rate mode                            : Constant
Bit rate                                 : 192 Kbps
Channel(s)                               : 2 channels
Channel positions                        : Front: L R
Sampling rate                            : 48.0 KHz
Bit depth                                : 16 bits
Compression mode                         : Lossy
Stream size                              : 158 MiB (3%)
Title                                    : MVO [TakTrebaProduction-ICTV] 2.0 192 kbps [Hurtom-patriot2305, ratbol]
Language                                 : Ukrainian
Default                                  : Yes
Forced                                   : No

Audio #2
ID                                       : 3
Format                                   : AC-3
Format/Info                              : Audio Coding 3
Mode extension                           : CM (complete main)
Format settings, Endianness              : Big
Codec ID                                 : A_AC3
Duration                                 : 1h 55mn
Bit rate mode                            : Constant
Bit rate                                 : 640 Kbps
Channel(s)                               : 6 channels
Channel positions                        : Front: L C R, Side: L R, LFE
Sampling rate                            : 48.0 KHz
Bit depth                                : 16 bits
Compression mode                         : Lossy
Stream size                              : 528 MiB (12%)
Title                                    : Original 5.1 640 kbps
Language                                 : English
Default                                  : No
Forced                                   : No

Text #1
ID                                       : 4
Format                                   : UTF-8
Codec ID                                 : S_TEXT/UTF8
Codec ID/Info                            : UTF-8 Plain Text
Language                                 : English
Default                                  : No
Forced                                   : No

Text #2
ID                                       : 5
Format                                   : UTF-8
Codec ID                                 : S_TEXT/UTF8
Codec ID/Info                            : UTF-8 Plain Text
Language                                 : French
Default                                  : No
Forced                                   : No

Text #3
ID                                       : 6
Format                                   : UTF-8
Codec ID                                 : S_TEXT/UTF8
Codec ID/Info                            : UTF-8 Plain Text
Language                                 : German
Default                                  : No
Forced                                   : No

Text #4
ID                                       : 7
Format                                   : UTF-8
Codec ID                                 : S_TEXT/UTF8
Codec ID/Info                            : UTF-8 Plain Text
Language                                 : Italian
Default                                  : No
Forced                                   : No

Text #5
ID                                       : 8
Format                                   : UTF-8
Codec ID                                 : S_TEXT/UTF8
Codec ID/Info                            : UTF-8 Plain Text
Language                                 : Spanish
Default                                  : No
Forced                                   : No

Text #6
ID                                       : 9
Format                                   : UTF-8
Codec ID                                 : S_TEXT/UTF8
Codec ID/Info                            : UTF-8 Plain Text
Language                                 : Swedish
Default                                  : No
Forced                                   : No

Menu
00:00:00.000                             : en:Candy-Coated Credits
00:04:14.129                             : en:Years Ago
00:07:54.766                             : en:Chocolate Palace
00:09:53.885                             : en:It's A Mystery
00:13:32.311                             : en:Golden Ticket Mania
00:16:45.796                             : en:Augustus Gloop and Veruca Salt
00:19:52.775                             : en:Birthday Bar
00:22:01.320                             : en:Violet Beauregarde and Mike Teavee
00:24:49.863                             : en:A Setback and a Fling
00:27:38.782                             : en:Finding Gold
00:31:26.760                             : en:Are You a Dummy?
00:33:04.733                             : en:Really Willy Wonka
00:38:06.784                             : en:Let's Be Friends
00:40:33.848                             : en:Everything's Eatable
00:44:25.872                             : en:Loompaland
00:48:24.318                             : en:Colg and Song: Augustus Gloop
00:54:34.480                             : en:Pink Sugar Boat
00:57:04.004                             : en:Dr. Wilbur Wonka
00:59:33.570                             : en:Chocolate River Rapids
01:01:44.743                             : en:Turning Violet
01:07:40.848                             : en:Song: Violet Beauregarde
01:10:07.120                             : en:First Candy Flashback
01:12:07.823                             : en:Squirrels and Bad Nuts
01:17:23.180                             : en:Song: Veruca Salt
01:20:19.106                             : en:Glass Elevator Flashback
01:22:21.728                             : en:Chocolate Transmission
01:28:12.704                             : en:Song: Mike Treavee
01:33:22.806                             : en:Up and Out
01:36:52.557                             : en:Winner's Choice
01:41:16.028                             : en:Charlie's Advice
01:44:22.006                             : en:Something Even Better
01:48:50.524                             : en:End Credits




Джерела та подяки: &
ріп відео, оригінальні звук та субтитри - EbP (HDbits), madoff (HDClub); українська доріжка - patriot2305 - зведення, ratbol - запис з ТБ; українізований постер - thefir (всі - Гуртом).


ЗАЛИШАЙТЕСЬ ЯКОМОГА ДОВШЕ НА РОЗДАЧІ!

СКАЧАВ САМ - ДАЙ СКАЧАТИ ІНШИМ


 Трекер:    Зареєстрований   

Завантажити / скачати фільм українською



відео для новачків



 Зареєстрований:   2014-10-04 10:46
 Розмір:   4.46 GB 
 Оцінка фільму:   6.9/10 (Голосів: 29)
   
Anonymous 







2014-10-04 23:24  
karvai0 написано:
по новому була ідентична озвучка

robotron005 написано:
Знайшлось на ВХС озвучення з каналу Інтер. По Інтеру було ідентичне озвучення

Ваш часовий пояс: GMT + 2 Години

Нова тема   Відповісти