Завантажити та скачати торренти українською


Таймлес. Рубінова книга / Rubinrot (2013) 720p Ukr/Ger | Sub Ukr/Eng/Ger

Нові коментарі

Нова тема   Відповісти
Автор Повідомлення
Anonymous 







2014-10-04 08:38  
Таймлес. Рубінова книга / Rubinrot (2013) 720p Ukr/Ger | Sub Ukr/Eng/Ger



«Кохання буде вічним, якщо ти - володар часу»


Жанр: драма, фентезі, детектив, романтичний, фантастика, пригодницький
Країна: Німеччина



Кінокомпанія: Lieblingsfilm, mem-film, Geißendörfer Film- und Fernsehproduktion
Режисер: Фелікс Фуксштайнер / Felix Fuchssteiner
Актори: Марія Еріх / Maria Ehrich, Янніс Нівенер / Jannis Niewöhner, Вероніка Феррес / Veronica Ferres, Уве Коккіш / Uwe Kockisch, Катаріна Тальбах / Katharina Thalbach, Ґоттфрід Йон / Gottfried John, Ґерлінде Локкер / Gerlinde Locker, Рюдіґер Воґлер / Rüdiger Vogler, Флоріан Бартоломай / Florian Bartholomäi, Дженіфер Лотсі / Jennifer Lotsi

Сюжет:
Одного разу Гвен Шеферд, 16-річна дівчинка, перенеслася назад у часі, прямо в 19-е століття. І найдивніше те, що це сталося саме з нею! Адже в її родині нікого не здивуєш здатністю подорожі в часі, але вона передається не всім і рідні думали, що спадкоємцем гена буде її кузен Шарлотт. Але, як би там не було, саме нашій юній героїні належить розплутати клубок загадок і таємниць, які оточують мандрівників у часі. А також розібратися з клеймом, яке на ній стоїть.


Вікова категорія: 12+

Тривалість: 02:01:34
Якість: 720p [TayTO]
Відео:
кодек:
розмір кадру: 1280x544
бітрейт: 4166 кбіт/с [crf=14.8]

Аудіо # 1:
мова: українська
переклад: професійний дубльований
кодек: 5.1
бітрейт: 1536 кбіт/с
Інформація про дубляж
Ролі дублювали: Анастасія Зіновенко, Андрій Федінчик, Ярослав Чорненький, Олена Узлюк, Андрій Альохін, Тетяна Зіновенко, Ірина Грей, Олена Яблучна, Юрій Ребрик, Анатолій Зіновенко та інші
Режисер дубляжу: Олександр Єфімов

Фільм перекладено і дубльована на студії ААА-sound на замовлення Caravella-DDC Україна у 2013 році
Аудіо # 2:
мова: німецька
переклад: оригінал
кодек: 5.1
бітрейт: 1536 кбіт/с

Субтитри # 1-3:
мова: українська, англійська, німецька
тип: програмні (м'які)
формат: *.srt

Збережено оригінальні розділи, як на Blu-ray.
MediaInfo
Код:
General
Unique ID                                : 213584756335850406502742785199386507333 (0xA0AEED839795E5E1BD9C9EE68BB1B845)
Complete name                            : Rubinrot (2013) [Ukr,Ger sub.Ukr.Eng.Ger] 720p [Hurtom & HDClub].mkv
Format                                   : Matroska
Format version                           : Version 4 / Version 2
File size                                : 6.22 GiB
Duration                                 : 2h 1mn
Overall bit rate                         : 7 330 Kbps
Movie name                               : Таймлес. Рубінова книга / Rubinrot (2013) 720p [Hurtom & HDCLUB]
Encoded date                             : UTC 2014-10-03 22:48:08
Writing application                      : mkvmerge v7.2.0 ('On Every Street') 64bit built on Sep 13 2014 15:52:10
Writing library                          : libebml v1.3.0 + libmatroska v1.4.1
DURATION                                 : 01:55:51.447000000
NUMBER_OF_FRAMES                         : 1190
NUMBER_OF_BYTES                          : 52870
_STATISTICS_WRITING_APP                  : mkvmerge v7.2.0 ('On Every Street') 64bit built on Sep 13 2014 15:52:10
_STATISTICS_WRITING_DATE_UTC             : 2014-10-03 22:48:08
_STATISTICS_TAGS                         : BPS DURATION NUMBER_OF_FRAMES NUMBER_OF_BYTES

Video
ID                                       : 1
Format                                   : AVC
Format/Info                              : Advanced Video Codec
Format profile                           : [email protected]
Format settings, CABAC                   : Yes
Format settings, ReFrames                : 12 frames
Codec ID                                 : V_MPEG4/ISO/AVC
Duration                                 : 2h 1mn
Bit rate                                 : 4 166 Kbps
Width                                    : 1 280 pixels
Height                                   : 544 pixels
Display aspect ratio                     : 2.35:1
Frame rate mode                          : Constant
Frame rate                               : 23.976 fps
Color space                              : YUV
Chroma subsampling                       : 4:2:0
Bit depth                                : 8 bits
Scan type                                : Progressive
Bits/(Pixel*Frame)                       : 0.250
Stream size                              : 3.54 GiB (57%)
Title                                    : Таймлес. Рубінова книга / Rubinrot / Таймлесс. Рубиновая книга (2013) 720p [TayTO]
Writing library                          : core 138 r2358 9e941d1
Encoding settings                        : cabac=1 / ref=12 / deblock=1:-3:-3 / analyse=0x3:0x133 / me=tesa / subme=11 / psy=1 / psy_rd=1.00:0.00 / mixed_ref=1 / me_range=16 / chroma_me=1 / trellis=2 / 8x8dct=1 / cqm=0 / deadzone=21,11 / fast_pskip=0 / chroma_qp_offset=-2 / threads=12 / lookahead_threads=2 / sliced_threads=0 / nr=0 / decimate=1 / interlaced=0 / bluray_compat=0 / constrained_intra=0 / bframes=7 / b_pyramid=2 / b_adapt=2 / b_bias=0 / direct=3 / weightb=1 / open_gop=0 / weightp=2 / keyint=250 / keyint_min=23 / scenecut=40 / intra_refresh=0 / rc=crf / mbtree=0 / crf=14.8 / qcomp=0.75 / qpmin=0 / qpmax=69 / qpstep=4 / ip_ratio=1.40 / pb_ratio=1.30 / aq=1:0.75
Language                                 : English
Default                                  : Yes
Forced                                   : No
Matrix coefficients                      : BT.709
DURATION                                 : 02:01:34.120000000
NUMBER_OF_FRAMES                         : 174884
NUMBER_OF_BYTES                          : 3928064032
_STATISTICS_WRITING_APP                  : mkvmerge v7.2.0 ('On Every Street') 64bit built on Sep 13 2014 15:52:10
_STATISTICS_WRITING_DATE_UTC             : 2014-10-03 22:48:08
_STATISTICS_TAGS                         : BPS DURATION NUMBER_OF_FRAMES NUMBER_OF_BYTES

Audio #1
ID                                       : 2
Format                                   :
Format/Info                              : Digital Theater Systems
Mode                                     : 16
Format settings, Endianness              : Big
Codec ID                                 : A_DTS
Duration                                 : 2h 1mn
Bit rate mode                            : Constant
Bit rate                                 : 1 509 Kbps
Channel(s)                               : 6 channels
Channel positions                        : Front: L C R, Side: L R, LFE
Sampling rate                            : 48.0 KHz
Bit depth                                : 24 bits
Compression mode                         : Lossy
Stream size                              : 1.28 GiB (21%)
Title                                    : Dub [Caravella-DDC Ukraine] 5.1 1536 kbps [Hurtom-karvai0]
Language                                 : Ukrainian
Default                                  : Yes
Forced                                   : No

Audio #2
ID                                       : 3
Format                                   :
Format/Info                              : Digital Theater Systems
Mode                                     : 16
Format settings, Endianness              : Big
Codec ID                                 : A_DTS
Duration                                 : 2h 1mn
Bit rate mode                            : Constant
Bit rate                                 : 1 509 Kbps
Channel(s)                               : 6 channels
Channel positions                        : Front: L C R, Side: L R, LFE
Sampling rate                            : 48.0 KHz
Bit depth                                : 24 bits
Compression mode                         : Lossy
Stream size                              : 1.28 GiB (21%)
Title                                    : Original 5.1 1536 kbps
Language                                 : German
Default                                  : No
Forced                                   : No

Text #1
ID                                       : 4
Format                                   : UTF-8
Codec ID                                 : S_TEXT/UTF8
Codec ID/Info                            : UTF-8 Plain Text
Title                                    : Ukr full
Language                                 : Ukrainian
Default                                  : No
Forced                                   : No

Text #2
ID                                       : 5
Format                                   : UTF-8
Codec ID                                 : S_TEXT/UTF8
Codec ID/Info                            : UTF-8 Plain Text
Title                                    : Eng full
Language                                 : English
Default                                  : No
Forced                                   : No

Text #3
ID                                       : 6
Format                                   : UTF-8
Codec ID                                 : S_TEXT/UTF8
Codec ID/Info                            : UTF-8 Plain Text
Title                                    : German full
Language                                 : German
Default                                  : No
Forced                                   : No

Menu
00:00:00.000                             : en:00:00:00.000
00:10:35.385                             : en:00:10:35.385
00:21:35.503                             : en:00:21:35.503
00:33:36.348                             : en:00:33:36.348
00:41:34.242                             : en:00:41:34.242
00:52:25.851                             : en:00:52:25.851
01:01:57.714                             : en:01:01:57.714
01:13:07.049                             : en:01:13:07.049
01:25:43.096                             : en:01:25:43.096
01:33:40.865                             : en:01:33:40.865
01:44:29.472                             : en:01:44:29.472
01:55:39.891                             : en:01:55:39.891




Джерела та подяки: &
ріп відео, оригінальні звук та субтитри - TayTO (HDbits), madoff (HDClub); українська доріжка - karvai0 (Гуртом).


ЗАЛИШАЙТЕСЬ ЯКОМОГА ДОВШЕ НА РОЗДАЧІ!

СКАЧАВ САМ - ДАЙ СКАЧАТИ ІНШИМ


 Трекер:    Зареєстрований   

Завантажити / скачати фільм українською



відео для новачків



 Зареєстрований:   2014-10-04 08:38
 Розмір:   6.22 GB 
 Оцінка фільму:   4.9/10 (Голосів: 19)
   
Ваш часовий пояс: GMT + 2 Години

Нова тема   Відповісти