Завантажити та скачати торренти українською


На межі майбутнього / Edge of Tomorrow (2014) 720p-mini (60fps)

Нові коментарі

Нова тема   Відповісти
Автор Повідомлення
Drool 
VIP


З нами з: 17.04.10
Востаннє: 05.12.16
Повідомлень: 1262

2014-10-03 11:32  
На межі майбутнього / Edge of Tomorrow (2014) 720p-mini (60fps)

Жанр: екшн, фантастика
Країна: США, Австралія



Кінокомпанія: Warner Bros., Village Roadshow Pictures, 3 Arts Entertainment
Режисер: Даґ Лайман
Актори: Том Круз, Емілі Блант, Брендан Ґлісон, Білл Пекстон, Джонас Армстронґ, Тоні Вей, Кік Ґаррі, Франц Драмех, Драґомир Мрсіч, Шарлотта Райлі

Сюжет:
В недалекому майбутньому раса інопланетян вторгається на Землю. Ніяка армія в світі не може протистояти їм. Майор Вільям Кейдж вмирає в бою, але трапляється неможливе - він опиняється в часовій петлі. Раз за разом він потрапляє в один і той же бій, бореться і вмирає... знову і знову. І кожний наступний бій, що повторюється, наближає його до розгадки того, як перемогти ворога.


Тривалість: 01:53:29
Якість: 720p-mini
Відео:
кодек:
розмір кадру: 1280x534
бітрейт: 4930 кб/с
частота кадрів: 59.940 кадрів/с

Аудіо:
мова: українська
переклад: професійний дубльований
кодек: 5.1
бітрейт: 448 кб/с

Джерело озвучення:


Субтитри:
мова: українська (форсовані)
тип: програмні (м'які)
формат: *.srt
MediaInfo
General
Unique ID : 260282670440503394772852199897373191374 (0xC3D09E7045C96D7F03639785A35DACCE)
Complete name : /mnt/disk_d/Video/Edge.of.Tomorrow.2014.Ukr.Dub..720p-mini.60 FPS.mkv
Format : Matroska
Format version : Version 4 / Version 2
File size : 4.26 GiB
Duration : 1h 53mn
Overall bit rate : 5 379 Kbps
Movie name : На межі майбутнього / Edge of Tomorrow (2014) 720p-mini [60 FPS] | video by NNNB
Encoded date : UTC 2010-02-22 21:41:31
Writing application : mkvmerge v6.1.0 ('Old Devil') built on Apr 14 2013 12:25:55
Writing library : libebml v1.3.0 + libmatroska v1.4.0

Video
ID : 1
Format : AVC
Format/Info : Advanced Video Codec
Format profile : [email protected]
Format settings, CABAC : Yes
Format settings, ReFrames : 9 frames
Codec ID : V_MPEG4/ISO/AVC
Duration : 1h 53mn
Bit rate : 4 930 Kbps
Width : 1 280 pixels
Height : 534 pixels
Display aspect ratio : 2.40:1
Frame rate : 59.940 fps
Color space : YUV
Chroma subsampling : 4:2:0
Bit depth : 8 bits
Scan type : Progressive
Bits/(Pixel*Frame) : 0.120
Stream size : 3.82 GiB (90%)
Title : На межі майбутнього / Edge of Tomorrow (2014) 720p-mini [60 FPS] | video by NNNB
Writing library : core 130 r2273 b3065e6
Encoding settings : cabac=1 / ref=9 / deblock=1:0:0 / analyse=0x3:0x133 / me=umh / subme=10 / psy=1 / psy_rd=1.00:0.00 / mixed_ref=1 / me_range=32 / chroma_me=1 / trellis=2 / 8x8dct=1 / cqm=0 / deadzone=21,11 / fast_pskip=0 / chroma_qp_offset=-2 / threads=12 / lookahead_threads=1 / sliced_threads=0 / nr=0 / decimate=1 / interlaced=0 / bluray_compat=0 / constrained_intra=0 / bframes=5 / b_pyramid=2 / b_adapt=2 / b_bias=0 / direct=3 / weightb=1 / open_gop=0 / weightp=2 / keyint=250 / keyint_min=25 / scenecut=40 / intra_refresh=0 / rc=2pass / mbtree=0 / bitrate=4930 / ratetol=1.0 / qcomp=0.60 / qpmin=0 / qpmax=69 / qpstep=4 / cplxblur=20.0 / qblur=0.5 / ip_ratio=1.40 / pb_ratio=1.30 / aq=2:0.80
Default : Yes
Forced : Yes

Audio
ID : 2
Format : AC-3
Format/Info : Audio Coding 3
Mode extension : CM (complete main)
Codec ID : A_AC3
Duration : 1h 53mn
Bit rate mode : Constant
Bit rate : 448 Kbps
Channel(s) : 6 channels
Channel positions : Front: L C R, Side: L R, LFE
Sampling rate : 48.0 KHz
Bit depth : 16 bits
Compression mode : Lossy
Stream size : 364 MiB (8%)
Title : Рідна мова (дубляж) [ 5.1 @ 448 kbps - Blu-ray]
Language : Ukrainian
Default : Yes
Forced : Yes

Text
ID : 3
Format : UTF-8
Codec ID : S_TEXT/UTF8
Codec ID/Info : UTF-8 Plain Text
Title : Forced
Language : Ukrainian
Default : Yes
Forced : Yes
Скріншоти




Джерело:
Особиста оцінка: 10 - без зайвих вагань рекомендую всім!


 Трекер:    Зареєстрований   

Завантажити / скачати фільм українською



відео для новачків



 Зареєстрований:   2014-10-03 12:41
 Розмір:   4.26 GB 
 Оцінка фільму:   9.6/10 (Голосів: 31)
   
bot 
робот


З нами з: 30.09.07
Востаннє: 26.05.05
Повідомлень: 15989

2014-10-03 11:32  
Тему перенесено з Фільми в HD до форуму Анонси релізів


Drool

vatanuki 
Свій


З нами з: 23.09.11
Востаннє: 03.12.16
Повідомлень: 64

2014-10-03 11:38  
А коли буде доступно. Дякую
Drool 
VIP


З нами з: 17.04.10
Востаннє: 05.12.16
Повідомлень: 1262

2014-10-03 11:39  
vatanuki написано:
А коли буде доступно. Дякую

Маю надію, що через пару годин.

omm 
Відео Гуртом - фільмокрай
Відео Гуртом - фільмокрай


З нами з: 12.06.12
Востаннє: 05.12.16
Повідомлень: 2066

2014-10-03 11:58  
Drool написано:
він виявляється в тимчасовій петлі.

невже так важко перечитати опис, а не тупо вставляти перекладене з російської?

Drool 
VIP


З нами з: 17.04.10
Востаннє: 05.12.16
Повідомлень: 1262

2014-10-03 12:04  
omm написано:
невже так важко перечитати опис, а не тупо вставляти перекладене з російської?

Дякую. Скопіпастив з сусідньої роздачі. Виправив на свій розсуд.

bot 
робот


З нами з: 30.09.07
Востаннє: 26.05.05
Повідомлень: 15989

2014-10-03 12:41  
Тему перенесено з Анонси релізів до форуму Фільми в HD


Drool

dimic 
Новенький


З нами з: 12.07.09
Востаннє: 29.11.16
Повідомлень: 16

2015-01-23 14:57  
шкода, немає 1080р з 60 к/с Neutral
stwan1 
Свій


З нами з: 27.05.09
Востаннє: 16.11.16
Повідомлень: 71

2015-01-23 19:42  
усі фільми в такому розмірі і форматі супер б було
Akc3nt57 
Свій


З нами з: 16.02.11
Востаннє: 22.11.16
Повідомлень: 130

2015-03-10 23:23  
Фільм вартий уваги! Любителям екшену приправленого долею гумору та фантастики, Круз на висоті!
lexxai 
Свій


З нами з: 04.02.10
Востаннє: 04.12.16
Повідомлень: 96

2015-03-16 21:56  
Цікаво а яким чином отримано 60fps ?
Frame rate : 59.940 fps

За допомогою SVP http://www.svp-team.com/, чи в оригіналі так було ?

Чи з 3D 2*30 ?

starteer 
Новенький


З нами з: 31.08.13
Востаннє: 16.03.15
Повідомлень: 1

2015-03-16 23:34  
Дякую за реліз. ДУЖЕ повчальний фільм!
Drool 
VIP


З нами з: 17.04.10
Востаннє: 05.12.16
Повідомлень: 1262

2015-03-16 23:55  
lexxai написано:
За допомогою SVP http://www.svp-team.com/, чи в оригіналі так було ?

Таких оригіналів не знімається. Максимум, що було на плівці - 48fps. Але на цифрових носіях стандартні значення.

Dabdub 
Новенький


З нами з: 13.03.13
Востаннє: 04.12.16
Повідомлень: 1

2015-12-27 00:24  
День бабака - 2014
Ваш часовий пояс: GMT + 2 Години

Нова тема   Відповісти