Завантажити та скачати торренти українською


Відкриті двері / Doors Open (2012) 720p-mini Ukr/Eng | Sub Eng

Нові коментарі

Нова тема   Відповісти
Автор Повідомлення
yura-pro 
Частий відвідувач


З нами з: 11.10.09
Востаннє: 07.12.16
Повідомлень: 30

2014-10-02 14:38  
Відкриті двері / Doors Open (2012) 720p-mini Ukr/Eng | Sub Eng



Відкриті двері / Doors Open (2012) 720p-mini Ukr/Eng | Sub Eng



Жанр: драма, кримінал
Країна: Великобританія



Кінокомпанія: Sprout Pictures
Режисер: Марк Еванс
Актори: Дуглас Хеншелл, Стівен Фрай, Кеннет Коллар, Ленора Крічлоу, Сара МакКарді, Елліот Кауен, Філіп Уітчерч, Пол МакКоул, Джордан Янг, Реб Аффлек та інші

Сюжет:
Шотландський мільйонер Майк МакКензі вдало продав свою комп'ютерну фірму, його друг - професор Роберт Гіссінг пропонує йому план бездоганного злочину, Майк вирішує втілити його в життя. Через брак місця у Національній галереї Шотландії багато цінних творів зберігаються в сховищі. В "День відчинених дверей" їх можна викрасти, а за допомогою хитромудрого трюку напевно вдасться заплутати слідство. МакКензі звертається за допомогою до професіонала...


Тривалість: 01:39:19
Якість: 720p-mini
Відео:
кодек:
розмір кадру: 1280 x 720
бітрейт: 1438 кб/с

Аудіо # 1:
мова: українська
переклад: двоголосий закадровий
кодек: 2.0
бітрейт: 192 кб/с
Джерело озвучення:


Аудіо # 2:
мова: англійська
переклад: оригінал
кодек: 2.0
бітрейт: 192 кб/с

Субтитри:
мова: англійська
тип: програмні (м'які)
формат: *.srt

Завантажити звукову доріжку: Аудіо # 1

MediaInfo
General
Unique ID : 213899733397604720342705954220893475576 (0xA0EB97150877FBEF8736816649A312F8)
Complete name : D:\Video\Movie\Doors Open (2012) 720p-mini [Hurtom].mkv
Format : Matroska
Format version : Version 4 / Version 2
File size : 1.30 GiB
Duration : 1h 39mn
Overall bit rate : 1 859 Kbps
Movie name : Doors.Open.2012.720p.HDTV.-TLA [hurtom.com]
Encoded date : UTC 2014-10-02 11:31:30
Writing application : mkvmerge v7.2.0 ('On Every Street') 64bit built on Sep 13 2014 15:52:10
Writing library : libebml v1.3.0 + libmatroska v1.4.1
DURATION : 01:39:19.819000000
NUMBER_OF_FRAMES : 1270
NUMBER_OF_BYTES : 51588
_STATISTICS_WRITING_APP : mkvmerge v7.2.0 ('On Every Street') 64bit built on Sep 13 2014 15:52:10
_STATISTICS_WRITING_DATE_UTC : 2014-10-02 11:31:30
_STATISTICS_TAGS : BPS DURATION NUMBER_OF_FRAMES NUMBER_OF_BYTES

Video
ID : 1
Format : AVC
Format/Info : Advanced Video Codec
Format profile : [email protected]
Format settings, CABAC : Yes
Format settings, ReFrames : 5 frames
Codec ID : V_MPEG4/ISO/AVC
Duration : 1h 39mn
Bit rate : 1 438 Kbps
Width : 1 280 pixels
Height : 720 pixels
Display aspect ratio : 16:9
Frame rate mode : Constant
Frame rate : 25.000 fps
Color space : YUV
Chroma subsampling : 4:2:0
Bit depth : 8 bits
Scan type : Progressive
Bits/(Pixel*Frame) : 0.062
Stream size : 1.00 GiB (77%)
Title : Doors Open (2012)
Writing library : core 129 r2230 1cffe9f
Encoding settings : cabac=1 / ref=5 / deblock=1:0:0 / analyse=0x3:0x113 / me=umh / subme=8 / psy=1 / psy_rd=1.00:0.00 / mixed_ref=1 / me_range=16 / chroma_me=1 / trellis=1 / 8x8dct=1 / cqm=0 / deadzone=21,11 / fast_pskip=1 / chroma_qp_offset=-2 / threads=12 / lookahead_threads=2 / sliced_threads=0 / nr=0 / decimate=1 / interlaced=0 / bluray_compat=0 / constrained_intra=0 / bframes=3 / b_pyramid=2 / b_adapt=2 / b_bias=0 / direct=3 / weightb=1 / open_gop=0 / weightp=2 / keyint=250 / keyint_min=25 / scenecut=40 / intra_refresh=0 / rc_lookahead=50 / rc=crf / mbtree=1 / crf=19.0 / qcomp=0.60 / qpmin=0 / qpmax=69 / qpstep=4 / ip_ratio=1.40 / aq=1:1.00
Language : English
Default : Yes
Forced : No
DURATION : 01:39:57.600000000
NUMBER_OF_FRAMES : 149940
NUMBER_OF_BYTES : 1105377728
_STATISTICS_WRITING_APP : mkvmerge v7.2.0 ('On Every Street') 64bit built on Sep 13 2014 15:52:10
_STATISTICS_WRITING_DATE_UTC : 2014-10-02 11:31:30
_STATISTICS_TAGS : BPS DURATION NUMBER_OF_FRAMES NUMBER_OF_BYTES

Audio #1
ID : 2
Format : AC-3
Format/Info : Audio Coding 3
Mode extension : CM (complete main)
Format settings, Endianness : Big
Codec ID : A_AC3
Duration : 1h 39mn
Bit rate mode : Constant
Bit rate : 192 Kbps
Channel(s) : 2 channels
Channel positions : Front: L R
Sampling rate : 48.0 KHz
Bit depth : 16 bits
Compression mode : Lossy
Stream size : 137 MiB (10%)
Title : Inter
Language : Ukrainian
Default : Yes
Forced : No

Audio #2
ID : 3
Format : AC-3
Format/Info : Audio Coding 3
Mode extension : CM (complete main)
Format settings, Endianness : Big
Codec ID : A_AC3
Duration : 1h 39mn
Bit rate mode : Constant
Bit rate : 192 Kbps
Channel(s) : 2 channels
Channel positions : Front: L R
Sampling rate : 48.0 KHz
Bit depth : 16 bits
Compression mode : Lossy
Stream size : 137 MiB (10%)
Language : English
Default : No
Forced : No

Text
ID : 4
Format : UTF-8
Codec ID : S_TEXT/UTF8
Codec ID/Info : UTF-8 Plain Text
Language : English
Default : No
Forced : No
Скріншоти



Джерело:
Подяка за звук: POMEO


 Трекер:    Зареєстрований   

Завантажити / скачати фільм українською



відео для новачків



 Зареєстрований:   2014-10-02 14:38
 Розмір:   1.3 GB 
 Оцінка фільму:   9/10 (Голосів: 3)
   
Інші релізи
   Відкриті двері / Doors Open (2012) AngryBirdsUA  0 / 0   1.46 GB   2014-10-20 15:31 
yura-pro 
Частий відвідувач


З нами з: 11.10.09
Востаннє: 07.12.16
Повідомлень: 30

2014-10-02 14:38  
Для "активних" користувачів, назва відповідає перекладу телеканала.
Ваш часовий пояс: GMT + 2 Години

Нова тема   Відповісти