Завантажити та скачати торренти українською


Іграшкові солдатики / Toy Soldiers (1991) 720p Ukr/Eng | Sub Eng

Нові коментарі

Нова тема   Відповісти
Автор Повідомлення
Anonymous 







2014-10-01 22:50  
Іграшкові солдатики / Toy Soldiers (1991) 720p Ukr/Eng | Sub Eng



Жанр: бойовик, трилер, драма
Країна: США



Кінокомпанія: Island World, TriStar Pictures
Режисер: Деніел Петрі мол. / Daniel Petrie Jr.
Актори: Шон Остін / Sean Astin, Віл Вітон / Wil Wheaton, Кіт Куген / Keith Coogan, Ендрю Дівофф / Andrew Divoff, Р. Лі Ермі / R. Lee Ermey, Мейсон Едемс / Mason Adams, Джордж Перес / George Perez, Т. Е. Рассел / T.E. Russell, Майкл Чемпіон / Michael Champion, Шон Фелан / Shawn Phelan та інші

Сюжет:
Коли учнів елітарного коледжу взято в заручники південноамериканськими терористами, їм нічого не залишається, як вступити в смертельну сутичку. Сержант армії встає на чолі загону студентів у їх відчайдушній спробі протистояти терору.


Рейтинг MPAA: R - особам до 17 років обов'язкова присутність батьків або дорослого опікуна
Вікова категорія: 16+

Тривалість: 01:52:03
Якість: 720p [CRiSC]
Відео:
кодек:
розмір кадру: 1280x694
бітрейт: 8902 кбіт/с [crf=17.3]

Аудіо # 1:
мова: українська - Студія 1+1
переклад: багатоголосий закадровий
ролі озвучили: Ігор Волков, Андрій Твердак та один жіночий голос
кодек: 2.0
бітрейт: 192 кбіт/с

Аудіо # 2:
мова: англійська
переклад: оригінал
кодек: 5.1
бітрейт: 768 кбіт/с

Субтитри:
мова: англійська
тип: програмні (м'які)
формат: *.srt

Збережено оригінальні розділи, як на Blu-ray.
MediaInfo
Код:
General
Unique ID                                : 173106134592763251219121387685806606140 (0x823B07608BE8C2919C8CFBCF5908073C)
Complete name                            : Toy Soldiers (1991) [Ukr,Eng sub.Eng] 720p [Hurtom & HDClub].mkv
Format                                   : Matroska
Format version                           : Version 4 / Version 2
File size                                : 7.88 GiB
Duration                                 : 1h 52mn
Overall bit rate                         : 10.1 Mbps
Movie name                               : Іграшкові солдатики / Toy Soldiers (1991) 720p [Hurtom & HDClub]
Encoded date                             : UTC 2014-10-01 21:17:38
Writing application                      : mkvmerge v7.2.0 ('On Every Street') 64bit built on Sep 13 2014 15:52:10
Writing library                          : libebml v1.3.0 + libmatroska v1.4.1
DURATION                                 : 01:43:00.430000000
NUMBER_OF_FRAMES                         : 1093
NUMBER_OF_BYTES                          : 40397
_STATISTICS_WRITING_APP                  : mkvmerge v7.2.0 ('On Every Street') 64bit built on Sep 13 2014 15:52:10
_STATISTICS_WRITING_DATE_UTC             : 2014-10-01 21:17:38
_STATISTICS_TAGS                         : BPS DURATION NUMBER_OF_FRAMES NUMBER_OF_BYTES

Video
ID                                       : 1
Format                                   : AVC
Format/Info                              : Advanced Video Codec
Format profile                           : [email protected]
Format settings, CABAC                   : Yes
Format settings, ReFrames                : 9 frames
Codec ID                                 : V_MPEG4/ISO/AVC
Duration                                 : 1h 52mn
Bit rate                                 : 8 902 Kbps
Width                                    : 1 280 pixels
Height                                   : 694 pixels
Display aspect ratio                     : 1.85:1
Frame rate mode                          : Constant
Frame rate                               : 23.976 fps
Color space                              : YUV
Chroma subsampling                       : 4:2:0
Bit depth                                : 8 bits
Scan type                                : Progressive
Bits/(Pixel*Frame)                       : 0.418
Stream size                              : 6.97 GiB (88%)
Title                                    : Іграшкові солдатики / Toy Soldiers / Игрушечные солдатики (1991) 720p [CRiSC]
Writing library                          : core 142 r2431 ac76440
Encoding settings                        : cabac=1 / ref=9 / deblock=1:-3:-3 / analyse=0x3:0x133 / me=tesa / subme=10 / psy=1 / psy_rd=1.00:0.00 / mixed_ref=1 / me_range=24 / chroma_me=1 / trellis=2 / 8x8dct=1 / cqm=0 / deadzone=21,11 / fast_pskip=0 / chroma_qp_offset=-2 / threads=12 / lookahead_threads=2 / sliced_threads=0 / nr=0 / decimate=1 / interlaced=0 / bluray_compat=0 / constrained_intra=0 / bframes=8 / b_pyramid=2 / b_adapt=2 / b_bias=0 / direct=3 / weightb=0 / open_gop=0 / weightp=2 / keyint=240 / keyint_min=23 / scenecut=40 / intra_refresh=0 / rc_lookahead=60 / rc=crf / mbtree=0 / crf=17.3 / qcomp=0.65 / qpmin=0 / qpmax=69 / qpstep=4 / vbv_maxrate=62500 / vbv_bufsize=78125 / crf_max=0.0 / nal_hrd=none / filler=0 / ip_ratio=1.30 / pb_ratio=1.20 / aq=1:1.00
Language                                 : English
Default                                  : Yes
Forced                                   : No

Audio #1
ID                                       : 2
Format                                   : AC-3
Format/Info                              : Audio Coding 3
Mode extension                           : CM (complete main)
Format settings, Endianness              : Big
Codec ID                                 : A_AC3
Duration                                 : 1h 52mn
Bit rate mode                            : Constant
Bit rate                                 : 192 Kbps
Channel(s)                               : 2 channels
Channel positions                        : Front: L R
Sampling rate                            : 48.0 KHz
Bit depth                                : 16 bits
Compression mode                         : Lossy
Stream size                              : 154 MiB (2%)
Title                                    : MVO [1+1] 2.0 192 kbps [Hurtom-willian]
Language                                 : Ukrainian
Default                                  : Yes
Forced                                   : No

Audio #2
ID                                       : 3
Format                                   :
Format/Info                              : Digital Theater Systems
Mode                                     : 16
Format settings, Endianness              : Big
Codec ID                                 : A_DTS
Duration                                 : 1h 52mn
Bit rate mode                            : Constant
Bit rate                                 : 768 Kbps
Channel(s)                               : 6 channels
Channel positions                        : Front: L C R, Side: L R, LFE
Sampling rate                            : 48.0 KHz
Bit depth                                : 16 bits
Compression mode                         : Lossy
Stream size                              : 616 MiB (8%)
Title                                    : Original 5.1 768 kbps
Language                                 : English
Default                                  : No
Forced                                   : No

Text
ID                                       : 4
Format                                   : UTF-8
Codec ID                                 : S_TEXT/UTF8
Codec ID/Info                            : UTF-8 Plain Text
Language                                 : English
Default                                  : No
Forced                                   : No

Menu
00:00:00.000                             : :00:00:00.000
00:04:22.011                             : :00:04:22.011
00:09:20.933                             : :00:09:20.933
00:23:31.410                             : :00:23:31.410
00:34:28.815                             : :00:34:28.815
00:42:24.958                             : :00:42:24.958
00:51:44.391                             : :00:51:44.391
01:03:58.416                             : :01:03:58.416
01:13:09.341                             : :01:13:09.341
01:25:29.916                             : :01:25:29.916
01:33:49.957                             : :01:33:49.957
01:44:45.944                             : :01:44:45.944




Джерела та подяки: &
ріп відео, оригінальні звук та субтитри - CRiSC (HDbits), madoff (HDClub); українська доріжка - willian (Гуртом).


ЗАЛИШАЙТЕСЬ ЯКОМОГА ДОВШЕ НА РОЗДАЧІ!

СКАЧАВ САМ - ДАЙ СКАЧАТИ ІНШИМ


Срібний реліз (на рейтинг впливає 50% завантаженого)
 Трекер:    Зареєстрований   

Завантажити / скачати фільм українською



відео для новачків



 Зареєстрований:   2014-10-01 23:43
 Розмір:   7.88 GB 
 Оцінка фільму:   2.5/10 (Голосів: 13)
   
Інші релізи
   Іграшкові солдатики / Toy Soldiers (1991) 2xUkr/Eng Arsenfpu  2 / 0   1.98 GB   2016-10-20 19:23 
   Іграшкові солдатики / Toy Soldiers (1991) willian  1 / 0   1.45 GB   2011-06-16 23:36 
Ваш часовий пояс: GMT + 2 Години

Нова тема   Відповісти