Завантажити та скачати торренти українською


Людина, яка дуже мало знала / The Man Who Knew Too Little (1997) 720p Ukr/Eng | Sub Eng

Нові коментарі

Нова тема   Відповісти
Автор Повідомлення
yura-pro 
Частий відвідувач


З нами з: 11.10.09
Востаннє: 04.12.16
Повідомлень: 30

2014-10-01 20:45  
Людина, яка дуже мало знала / The Man Who Knew Too Little (1997) 720p Ukr/Eng | Sub Eng



Людина, яка дуже мало знала / The Man Who Knew Too Little (1997) 720p Ukr/Eng | Sub Eng



Жанр: комедія, кримінал, бойовик
Країна: США, Німеччина



Кінокомпанія: Warner Bros., Regency Enterprises, Polar Productions
Режисер: Джон Еміел
Актори: Білл Мюррей, Пітер Галлагер, Джоенн Веллі, Альфред Моліна, Річард Вілсон, Джон Стендінг, Саймон Чендлер та інші

Сюжет:
Приїхавши до Лондона, Річі приймають не за того, хто він є насправді. Випадково він отримує таємні інструкції і стає крутим суперагентом, сам того не підозрюючи.

Річі простий та наївний хлопець, він ледь вимовляє складні слова і навряд чи такий хороший, як здається, але... він весело вирішує всі проблеми, особливо не задумуючись. Стрілянина, переслідування, нокаути і бомби з годинниковим механізмом - це тільки початок. Початок життя шпигуна!


Тривалість: 01:33:43
Якість: 720p [Encode by CtrlHD]
Відео:
кодек:
розмір кадру: 1280 x 720
бітрейт: 7000 кб/с

Аудіо # 1:
мова: українська
переклад: двоголосий закадровий
кодек: 2.0
бітрейт: 192 кб/с
ролі озвучили: Євген Пашин та Лідія Муращенко
Джерело озвучення:


Аудіо # 2:
мова: англійська
переклад: оригінал
кодек: 5.1
бітрейт: 640 кб/с

Аудіо # 3:
мова: англійська
переклад: оригінал
кодек: 2.0
бітрейт: 192 кб/с
примітка: Commentary by Jon Amiel

Субтитри:
мова: англійська
тип: програмні (м'які)
формат: *.srt

Завантажити звукову доріжку: Аудіо # 1

MediaInfo
General
Unique ID : 177156333242344308688751717751846663495 (0x8547119683DAAA25B1313EF29F6CF547)
Complete name : D:\Video\Movie\The Man Who Knew Too Little (1997) 720p [UKR_ENG] [Hurtom].mkv
Format : Matroska
Format version : Version 4 / Version 2
File size : 5.25 GiB
Duration : 1h 33mn
Overall bit rate : 8 025 Kbps
Movie name : The.Man.Who.Knew.Too.Little.1997.720p.BluRay.-CtrlHD [hurtom.com]
Encoded date : UTC 2014-10-01 17:05:07
Writing application : mkvmerge v7.2.0 ('On Every Street') 64bit built on Sep 13 2014 15:52:10
Writing library : libebml v1.3.0 + libmatroska v1.4.1
DURATION : 01:33:43.104000000
NUMBER_OF_FRAMES : 175722
NUMBER_OF_BYTES : 134954496
_STATISTICS_WRITING_APP : mkvmerge v7.2.0 ('On Every Street') 64bit built on Sep 13 2014 15:52:10
_STATISTICS_WRITING_DATE_UTC : 2014-10-01 17:05:07
_STATISTICS_TAGS : BPS DURATION NUMBER_OF_FRAMES NUMBER_OF_BYTES

Video
ID : 1
Format : AVC
Format/Info : Advanced Video Codec
Format profile : [email protected]
Format settings, CABAC : Yes
Format settings, ReFrames : 9 frames
Codec ID : V_MPEG4/ISO/AVC
Duration : 1h 33mn
Bit rate : 7 000 Kbps
Width : 1 280 pixels
Height : 720 pixels
Display aspect ratio : 16:9
Frame rate mode : Constant
Frame rate : 23.976 fps
Color space : YUV
Chroma subsampling : 4:2:0
Bit depth : 8 bits
Scan type : Progressive
Bits/(Pixel*Frame) : 0.317
Stream size : 4.48 GiB (85%)
Title : The Man Who Knew Too Little (1997)
Writing library : core 142 r2453kMod ea0ca51
Encoding settings : cabac=1 / ref=9 / deblock=1:-3:-3 / analyse=0x3:0x133 / me=umh / subme=10 / psy=1 / fade_compensate=0.00 / psy_rd=1.05:0.00 / mixed_ref=1 / me_range=32 / chroma_me=1 / trellis=2 / 8x8dct=1 / cqm=0 / deadzone=21,11 / fast_pskip=0 / chroma_qp_offset=-2 / threads=6 / lookahead_threads=1 / sliced_threads=0 / nr=0 / decimate=0 / interlaced=0 / bluray_compat=0 / constrained_intra=0 / fgo=0 / bframes=8 / b_pyramid=2 / b_adapt=2 / b_bias=0 / direct=3 / weightb=1 / open_gop=0 / weightp=2 / keyint=250 / keyint_min=23 / scenecut=40 / intra_refresh=0 / rc_lookahead=60 / rc=2pass / mbtree=0 / bitrate=7000 / ratetol=1.0 / qcomp=0.70 / qpmin=0 / qpmax=69 / qpstep=4 / cplxblur=20.0 / qblur=0.5 / vbv_maxrate=62500 / vbv_bufsize=78125 / nal_hrd=none / filler=0 / ip_ratio=1.20 / pb_ratio=1.10 / aq=1:0.70
Language : English
Default : Yes
Forced : No
DURATION : 01:33:42.075000000
NUMBER_OF_FRAMES : 134795
NUMBER_OF_BYTES : 4919139545
_STATISTICS_WRITING_APP : mkvmerge v7.2.0 ('On Every Street') 64bit built on Sep 13 2014 15:52:10
_STATISTICS_WRITING_DATE_UTC : 2014-10-01 17:05:07
_STATISTICS_TAGS : BPS DURATION NUMBER_OF_FRAMES NUMBER_OF_BYTES

Audio #1
ID : 2
Format : AC-3
Format/Info : Audio Coding 3
Mode extension : CM (complete main)
Format settings, Endianness : Big
Codec ID : A_AC3
Duration : 1h 33mn
Bit rate mode : Constant
Bit rate : 192 Kbps
Channel(s) : 2 channels
Channel positions : Front: L R
Sampling rate : 48.0 KHz
Bit depth : 16 bits
Compression mode : Lossy
Stream size : 129 MiB (2%)
Title : Novy Channel
Language : Ukrainian
Default : Yes
Forced : No

Audio #2
ID : 3
Format : AC-3
Format/Info : Audio Coding 3
Mode extension : CM (complete main)
Format settings, Endianness : Big
Codec ID : A_AC3
Duration : 1h 33mn
Bit rate mode : Constant
Bit rate : 640 Kbps
Channel(s) : 6 channels
Channel positions : Front: L C R, Side: L R, LFE
Sampling rate : 48.0 KHz
Bit depth : 16 bits
Compression mode : Lossy
Stream size : 429 MiB (8%)
Language : English
Default : No
Forced : No

Audio #3
ID : 4
Format : AC-3
Format/Info : Audio Coding 3
Format profile : Dolby Digital
Mode extension : CM (complete main)
Format settings, Endianness : Big
Codec ID : A_AC3
Duration : 1h 33mn
Bit rate mode : Constant
Bit rate : 192 Kbps
Channel(s) : 2 channels
Channel positions : Front: L R
Sampling rate : 48.0 KHz
Bit depth : 16 bits
Compression mode : Lossy
Stream size : 129 MiB (2%)
Title : Commentary by Jon Amiel
Language : English
Default : No
Forced : No

Text #1
ID : 5
Format : UTF-8
Codec ID : S_TEXT/UTF8
Codec ID/Info : UTF-8 Plain Text
Language : English
Default : No
Forced : No

Text #2
ID : 6
Format : UTF-8
Codec ID : S_TEXT/UTF8
Codec ID/Info : UTF-8 Plain Text
Title : SDH
Language : English
Default : No
Forced : No

Menu
00:00:00.000 : en:Chapter 1
00:09:12.927 : en:Chapter 2
00:19:25.081 : en:Chapter 3
00:30:38.962 : en:Chapter 4
00:40:01.274 : en:Chapter 5
00:50:57.221 : en:Chapter 6
00:59:58.428 : en:Chapter 7
01:09:34.003 : en:Chapter 8
01:19:44.113 : en:Chapter 9
Скріншоти



Джерело:
Подяка за звук: NemoInFire, Hulk1987, dovan, UA2004


Срібний реліз (на рейтинг впливає 50% завантаженого)
 Трекер:    Зареєстрований   

Завантажити / скачати фільм українською



відео для новачків



 Зареєстрований:   2014-10-01 20:45
 Розмір:   5.25 GB 
 Оцінка фільму:   10/10 (Голосів: 1)
   
Інші релізи
igor911 
Відео Гуртом
Відео Гуртом


З нами з: 18.01.08
Востаннє: 04.12.16
Повідомлень: 5129

2014-10-01 20:57  
Між скрінами вставляй пробіл.
Також, можеш дадати інформацію про озвучення:
Код:
[color=Green][i]ролі озвучили:[/i][/color] [url=http://toloka.to/t26367][b]Євген Пашин[/b][/url] та [url=http://toloka.to/t30360][b]Лідія Муращенко[/b][/url]

Ваш часовий пояс: GMT + 2 Години

Нова тема   Відповісти