Завантажити та скачати торренти українською


Оптом дешевше / Cheaper by the Dozen (2003) 1080p Ukr/Eng

Нові коментарі

Нова тема   Відповісти
Автор Повідомлення
yura-pro 
Частий відвідувач


З нами з: 11.10.09
Востаннє: 01.12.16
Повідомлень: 30

2014-10-01 16:21  
Оптом дешевше / Cheaper by the Dozen (2003) 1080p Ukr/Eng



Оптом дешевше / Cheaper by the Dozen (2003) 1080p Ukr/Eng



Жанр: комедія, сімейний
Країна: США



Кінокомпанія: Twentieth Century Fox Film Corporation, Robert Simonds Productions
Режисер: Шон Леві
Актори: Стів Мартін, Бонні Хант, Том Веллінг, Пайпер Перабо, Гіларі Дафф, Ештон Кутчер та інші

Сюжет:
Том і Кейт разом ще зі школи. Вони завжди мріяли про велику родину та успішну кар'єру. Але після народження перших дітей думки про кар'єру відійшли на другий план і все сімейство переїхало в тихий і спокійною Іллінойс. Коли дітей стало вже дванадцять, Тому запропонували роботу його мрії - тренувати футбольну команду.

Для цього всій родині знову доводиться поміняти місце проживання. Кейт теж пощастило - її мемуари нарешті опублікують. Вона їде на презентацію книги в Нью-Йорк, залишаючи бідного Тома стежити за цілою юрбою дітей. Чи зможе Том правильно розподілити свої зусилля, щоб ні діти, ні робота не постраждали?


Тривалість: 01:39:05
Якість: 1080p
Відео:
кодек:
розмір кадру: 1912 x 1036
бітрейт: 5082 кб/с

Аудіо # 1:
мова: українська
переклад: двоголосий закадровий
кодек: 2.0
бітрейт: 192 кб/с
Джерело озвучення:


Аудіо # 2:
мова: англійська
переклад: оригінал
кодек: 5.1
бітрейт: 384 кб/с

Завантажити звукову доріжку: Аудіо # 1

MediaInfo
General
Unique ID : 203216804695652329745113709488288095883 (0x98E222082222AF528DCD36AB7AA4DE8B)
Complete name : D:\Video\Movie\Cheaper by the Dozen (2003) 1080p [UKR_ENG] [Hurtom].mkv
Format : Matroska
Format version : Version 4 / Version 2
File size : 4.00 GiB
Duration : 1h 39mn
Overall bit rate mode : Variable
Overall bit rate : 5 786 Kbps
Encoded date : UTC 2014-10-01 14:15:17
Writing application : mkvmerge v7.2.0 ('On Every Street') 64bit built on Sep 13 2014 15:52:10
Writing library : libebml v1.3.0 + libmatroska v1.4.1
DURATION : 01:38:43.392000000
NUMBER_OF_FRAMES : 185106
NUMBER_OF_BYTES : 284322816
_STATISTICS_WRITING_APP : mkvmerge v7.2.0 ('On Every Street') 64bit built on Sep 13 2014 15:52:10
_STATISTICS_WRITING_DATE_UTC : 2014-10-01 14:15:17
_STATISTICS_TAGS : BPS DURATION NUMBER_OF_FRAMES NUMBER_OF_BYTES

Video
ID : 1
Format : AVC
Format/Info : Advanced Video Codec
Format profile : [email protected]
Format settings, CABAC : Yes
Format settings, ReFrames : 2 frames
Codec ID : V_MPEG4/ISO/AVC
Duration : 1h 39mn
Bit rate mode : Variable
Bit rate : 5 095 Kbps
Maximum bit rate : 768 Kbps
Width : 1 912 pixels
Height : 1 036 pixels
Display aspect ratio : 1.85:1
Frame rate mode : Constant
Frame rate : 23.976 fps
Original frame rate : 25.000 fps
Color space : YUV
Chroma subsampling : 4:2:0
Bit depth : 8 bits
Scan type : Progressive
Bits/(Pixel*Frame) : 0.107
Stream size : 3.53 GiB (88%)
Language : English
Default : Yes
Forced : No

Audio #1
ID : 2
Format : AC-3
Format/Info : Audio Coding 3
Mode extension : CM (complete main)
Format settings, Endianness : Big
Codec ID : A_AC3
Duration : 1h 39mn
Bit rate mode : Constant
Bit rate : 192 Kbps
Channel(s) : 2 channels
Channel positions : Front: L R
Sampling rate : 48.0 KHz
Bit depth : 16 bits
Compression mode : Lossy
Stream size : 136 MiB (3%)
Title : Novy Channel
Language : Ukrainian
Default : Yes
Forced : No

Audio #2
ID : 3
Format : AC-3
Format/Info : Audio Coding 3
Mode extension : CM (complete main)
Format settings, Endianness : Big
Codec ID : A_AC3
Duration : 1h 39mn
Bit rate mode : Constant
Bit rate : 384 Kbps
Channel(s) : 6 channels
Channel positions : Front: L C R, Side: L R, LFE
Sampling rate : 48.0 KHz
Bit depth : 16 bits
Compression mode : Lossy
Stream size : 272 MiB (7%)
Language : English
Default : No
Forced : No

Menu
00:00:00.000 : en:Kapitel 01
00:04:52.000 : en:Kapitel 02
00:08:31.000 : en:Kapitel 03
00:12:34.000 : en:Kapitel 04
00:15:51.000 : en:Kapitel 05
00:19:31.000 : en:Kapitel 06
00:21:03.000 : en:Kapitel 07
00:23:26.000 : en:Kapitel 08
00:26:40.000 : en:Kapitel 09
00:28:50.000 : en:Kapitel 10
00:31:16.000 : en:Kapitel 11
00:33:44.000 : en:Kapitel 12
00:41:26.000 : en:Kapitel 13
00:44:29.000 : en:Kapitel 14
00:46:39.000 : en:Kapitel 15
00:52:19.000 : en:Kapitel 16
00:53:34.000 : en:Kapitel 17
00:58:22.000 : en:Kapitel 18
01:03:51.000 : en:Kapitel 19
01:07:23.000 : en:Kapitel 20
01:11:52.000 : en:Kapitel 21
01:15:11.000 : en:Kapitel 22
01:17:50.000 : en:Kapitel 23
01:19:26.000 : en:Kapitel 24
01:26:47.000 : en:Kapitel 25
01:27:59.000 : en:Kapitel 26
01:30:12.000 : en:Kapitel 27
01:31:48.000 : en:Kapitel 28
Скріншоти



Джерело:
Подяка за звук: abodnya


Срібний реліз (на рейтинг впливає 50% завантаженого)
 Трекер:    Зареєстрований   

Завантажити / скачати фільм українською



відео для новачків



 Зареєстрований:   2014-10-01 16:21
 Розмір:   4 GB 
 Оцінка фільму:   8.3/10 (Голосів: 3)
   
Oleksa9 
Поважний учасник


З нами з: 17.05.12
Востаннє: 03.12.16
Повідомлень: 225

2014-10-01 18:54  
"Оптом".... ГУРТОМ!
yura-pro 
Частий відвідувач


З нами з: 11.10.09
Востаннє: 01.12.16
Повідомлень: 30

2014-10-01 20:06  
Oleksa9
Назва відповідає перекладу телеканала. Уважно слухаємо http://multi-up.com/1002985

Ваш часовий пояс: GMT + 2 Години

Нова тема   Відповісти